找回密码

蓝光电影网

查看: 26|回复: 0

[爱情] 的士判决 The.Fare.2018.1080p.BluRay.x264.DTS-FGT 7.46GB

[复制链接]
蓝光币
382
发表于 2020-10-6 09:19:29 | 显示全部楼层 |阅读模式


◎译  名 的士判决
◎片  名 The Fare
◎年  代 2018
◎产  地 匈牙利,美国
◎类  别 恋爱 / 悬疑 / 惊悚
◎语  言 英语
◎上映日期 2018-12-09(美国)
◎IMDb评分  6.1/10 from 1051 users
◎IMDb链接  https://www.imdb.com/title/tt7293920/
◎豆瓣评分 /10 from 0 users
◎豆瓣链接 https://movie.douban.com/subject/34882846/
◎片  长 82分钟
◎标  签 美国 | 循环 | 恋爱 | 悬疑 | 2018
◎简  介


  2019年老阿密国际科幻电影节Best Dark Fantasy/Supernatural Film奖项获奖。
  
  2018年异天下奥斯丁科幻电影节最好编剧奖获奖。
  
  当一位叫潘妮的美丽女人钻进他的出租车的一刻,已然厌世的司机哈里斯,发觉自己堕入了与唯逐一位乘客相处的死循环--这段相处只延续至潘妮旅程竣事,在她不留一丝痕迹地猝然消失之前。而迷惑向现实低了头,他重置仪表盘,同时回到潘妮上车的那一刻。直到他和潘妮意想到自己身陷一段无尽循环的夜的士旅程,相互是唯一的旅伴,奥秘终将解开,真相将浮出水面,而哈里的人生轨道将永久改变。
  1. Video
  2. ID                                       : 1
  3. Format                                   : AVC
  4. Format/Info                              : Advanced Video Codec
  5. Format profile                           : [email protected]
  6. Format settings                          : CABAC / 4 Ref Frames
  7. Format settings, CABAC                   : Yes
  8. Format settings, Reference frames        : 4 frames
  9. Codec ID                                 : V_MPEG4/ISO/AVC
  10. Duration                                 : 1 h 22 min
  11. Bit rate                                 : 11.5 Mb/s
  12. Width                                    : 1 920 pixels
  13. Height                                   : 800 pixels
  14. Display aspect ratio                     : 2.40:1
  15. Frame rate mode                          : Constant
  16. Frame rate                               : 23.976 (24000/1001/189150) FPS
  17. Color space                              : YUV
  18. Chroma subsampling                       : 4:2:0
  19. Bit depth                                : 8 bits
  20. Scan type                                : Progressive
  21. Bits/(Pixel*Frame)                       : 0.312
  22. Stream size                              : 6.59 GiB (88%)
  23. Title                                    : The.Fare.2018.1080p.BluRay.x264.DTS-FGT
  24. Writing library                          : x264 core 148 r2748 97eaef2
  25. Encoding settings                        : cabac=1 / ref=4 / deblock=1:-2:-2 / analyse=0x3:0x113 / me=umh / subme=9 / psy=1 / psy_rd=1.00:0.15 / mixed_ref=1 / me_range=16 / chroma_me=1 / trellis=2 / 8x8dct=1 / cqm=0 / deadzone=21,11 / fast_pskip=1 / chroma_qp_offset=-3 / threads=72 / lookahead_threads=3 / sliced_threads=0 / nr=0 / decimate=1 / interlaced=0 / bluray_compat=0 / constrained_intra=0 / bframes=3 / b_pyramid=2 / b_adapt=1 / b_bias=0 / direct=3 / weightb=1 / open_gop=0 / weightp=2 / keyint=250 / keyint_min=25 / scenecut=40 / intra_refresh=0 / rc_lookahead=50 / rc=2pass / mbtree=1 / bitrate=11500 / ratetol=1.0 / qcomp=0.60 / qpmin=0 / qpmax=69 / qpstep=4 / cplxblur=20.0 / qblur=0.5 / vbv_maxrate=31250 / vbv_bufsize=31250 / nal_hrd=none / filler=0 / ip_ratio=1.40 / aq=1:1.00
  26. Language                                 : English
  27. Default                                  : Yes
  28. Forced                                   : No
  29. Audio
  30. ID                                       : 2
  31. Format                                   : DTS
  32. Format/Info                              : Digital Theater Systems
  33. Codec ID                                 : A_DTS
  34. Duration                                 : 1 h 22 min
  35. Bit rate mode                            : Constant
  36. Bit rate                                 : 1 509 kb/s
  37. Channel(s)                               : 6 channels
  38. Channel layout                           : C L R Ls Rs LFE
  39. Sampling rate                            : 48.0 kHz
  40. Frame rate                               : 93.750 FPS (512 SPF)
  41. Bit depth                                : 24 bits
  42. Compression mode                         : Lossy
  43. Stream size                              : 886 MiB (12%)
  44. Title                                    : The.Fare.2018.1080p.BluRay.x264.DTS-FGT
  45. Language                                 : English
  46. Default                                  : Yes
  47. Forced                                   : No
  48. Text
  49. ID                                       : 3
  50. Format                                   : UTF-8
  51. Codec ID                                 : S_TEXT/UTF8
  52. Codec ID/Info                            : UTF-8 Plain Text
  53. Duration                                 : 1 h 19 min
  54. Bit rate                                 : 62 b/s
  55. Count of elements                        : 1435
  56. Stream size                              : 36.5 KiB (0%)
  57. Language                                 : English
  58. Default                                  : Yes
  59. Forced                                   : No
  60. Menu
  61. 00:00:00.000                             : en:Chapter 01
  62. 00:09:45.752                             : en:Chapter 02
  63. 00:19:13.319                             : en:Chapter 03
  64. 00:29:56.837                             : en:Chapter 04
  65. 00:39:36.666                             : en:Chapter 05
  66. 00:49:54.909                             : en:Chapter 06
  67. 00:59:28.273                             : en:Chapter 07
  68. 01:09:44.347                             : en:Chapter 08
  69. 01:19:31.058                             : en:Chapter 09
复制代码






                                       
                                       

                                       
                                       
                                       




回复

使用道具 举报

懒得打字嘛,点击右侧快捷回复 【右侧内容,后台自定义】
您需要登录后才可以回帖 登录 | 立即加入

本版积分规则

Archiver|小黑屋| 蓝光电影网 |网站地图

Copyright © 2021 Comsenz Inc. Powered by 蓝光电影网

蓝光电影网

本站内容由用户自主分享和转载自互联网,转载目的在于传递更多信息,并不代表本网赞同其观点和对其真实性负责。

如有侵权、违反国家法律政策行为,请联系我们,我们会第一时间及时清除和处理!

举报反馈邮箱:[email protected]

快速回复 返回顶部 返回列表