找回密码

蓝光电影网

查看: 5|回复: 0

[惊悚] 致命弯道/致命弯道7 Wrong.Turn.2021.720p.BluRay.x264.DTS-MT 6.25GB

[复制链接]
蓝光币
382
发表于 2021-2-14 08:53:04 | 显示全部楼层 |阅读模式


◎译  名 致命弯道/致命弯道7/致命弯道重启版
◎片  名 Wrong Turn
◎年  代 2021
◎产  地 德国
◎类  别 惊悚 / 可骇
◎语  言 英语
◎上映日期 2021-01-26(美国)
◎IMDb评分  5.7/10 from 1570 users
◎IMDb链接  https://www.imdb.com/title/tt9110170/
◎豆瓣评分 6.4/10 from 122 users
◎豆瓣链接 https://movie.douban.com/subject/30352897/
◎片  长 110分钟
◎导  演 迈克·P·纳尔逊 Mike P. Nelson
◎编  剧 阿兰·B·麦克埃尔罗伊 Alan B. McElroy
◎主  演 夏洛特·维嘉 Charlotte Vega
       艾玛·杜蒙特 Emma Dumont
       马修·莫迪恩 Matthew Modine
       黛茜·海德 Daisy Head
       比尔·萨奇 Bill Sage
       达米安·马菲 Damian Maffei
       迪伦·麦蒂 Dylan McTee
       科里·斯科特·艾伦 Cory Scott Allen
       阿德里安·法维拉 Adrian Favela
       大卫·哈奇森 David Hutchison
◎标  签 可骇 | *可骇 | 2021 | 美国电影 | 翻拍 | #系列 | 丧尸 | !电影
◎简  介


  一群密切的好朋友决议前往西弗吉尼亚州徒步观光,却意外碰到在对陌生人不友爱的部落,这是一个已经在山里居住了数百年的部落。面临好朋友相继遇难,女配角操纵自己的勇敢和聪明庇护自己,终极虎口脱险的故事。
  1. Video
  2. ID                                       : 1
  3. Format                                   : AVC
  4. Format/Info                              : Advanced Video Codec
  5. Format profile                           : [email protected]
  6. Format settings                          : CABAC / 12 Ref Frames
  7. Format settings, CABAC                   : Yes
  8. Format settings, Reference frames        : 12 frames
  9. Codec ID                                 : V_MPEG4/ISO/AVC
  10. Duration                                 : 1 h 50 min
  11. Bit rate                                 : 6 606 kb/s
  12. Width                                    : 1 280 pixels
  13. Height                                   : 540 pixels
  14. Display aspect ratio                     : 2.40:1
  15. Frame rate mode                          : Constant
  16. Frame rate                               : 23.976 (24000/1001/189150) FPS
  17. Color space                              : YUV
  18. Chroma subsampling                       : 4:2:0
  19. Bit depth                                : 8 bits
  20. Scan type                                : Progressive
  21. Bits/(Pixel*Frame)                       : 0.399
  22. Stream size                              : 5.09 GiB (81%)
  23. Writing library                          : x264 core 157 r2938 2b00a84 [email protected] Mod
  24. Encoding settings                        : cabac=1 / ref=12 / deblock=1:-3:-3 / analyse=0x3:0x133 / me=umh / subme=10 / psy=1 / psy_rd=1.05:0.00 / mixed_ref=1 / me_range=32 / chroma_me=1 / trellis=2 / 8x8dct=1 / cqm=0 / deadzone=21,11 / fast_pskip=0 / chroma_qp_offset=-2 / threads=12 / lookahead_threads=2 / sliced_threads=0 / nr=0 / decimate=0 / interlaced=0 / bluray_compat=0 / constrained_intra=0 / bframes=8 / b_pyramid=2 / b_adapt=2 / b_bias=0 / direct=3 / weightb=1 / open_gop=0 / weightp=2 / keyint=250 / keyint_min=24 / scenecut=40 / intra_refresh=0 / rc_lookahead=250 / rc=crf / mbtree=0 / crf=16.8 / qcomp=0.60 / qpmin=0 / qpmax=69 / qpstep=4 / vbv_maxrate=62500 / vbv_bufsize=78125 / crf_max=0.0 / nal_hrd=none / filler=0 / ip_ratio=1.30 / pb_ratio=1.20 / aq=3:0.80
  25. Language                                 : English
  26. Default                                  : Yes
  27. Forced                                   : No
  28. Color range                              : Limited
  29. Color primaries                          : BT.709
  30. Matrix coefficients                      : BT.709
  31. Audio
  32. ID                                       : 2
  33. Format                                   : DTS
  34. Format/Info                              : Digital Theater Systems
  35. Codec ID                                 : A_DTS
  36. Duration                                 : 1 h 50 min
  37. Bit rate mode                            : Constant
  38. Bit rate                                 : 1 509 kb/s
  39. Channel(s)                               : 6 channels
  40. Channel layout                           : C L R Ls Rs LFE
  41. Sampling rate                            : 48.0 kHz
  42. Frame rate                               : 93.750 FPS (512 SPF)
  43. Bit depth                                : 24 bits
  44. Compression mode                         : Lossy
  45. Stream size                              : 1.16 GiB (19%)
  46. Language                                 : English
  47. Default                                  : Yes
  48. Forced                                   : No
  49. Text
  50. ID                                       : 3
  51. Format                                   : UTF-8
  52. Codec ID                                 : S_TEXT/UTF8
  53. Codec ID/Info                            : UTF-8 Plain Text
  54. Duration                                 : 1 h 46 min
  55. Bit rate                                 : 44 b/s
  56. Count of elements                        : 1296
  57. Stream size                              : 34.9 KiB (0%)
  58. Language                                 : English
  59. Default                                  : Yes
  60. Forced                                   : No
  61. Menu
  62. 00:00:00.000                             : en:Chapter 01
  63. 00:05:22.364                             : en:Chapter 02
  64. 00:14:39.170                             : en:Chapter 03
  65. 00:20:43.826                             : en:Chapter 04
  66. 00:25:05.129                             : en:Chapter 05
  67. 00:32:36.538                             : en:Chapter 06
  68. 00:39:30.952                             : en:Chapter 07
  69. 00:44:12.859                             : en:Chapter 08
  70. 00:48:35.329                             : en:Chapter 09
  71. 00:58:29.381                             : en:Chapter 10
  72. 01:06:07.172                             : en:Chapter 11
  73. 01:14:34.970                             : en:Chapter 12
  74. 01:22:48.130                             : en:Chapter 13
  75. 01:29:33.535                             : en:Chapter 14
  76. 01:38:13.346                             : en:Chapter 15
  77. 01:43:54.061                             : en:Chapter 16
复制代码






                                       
                                       

                                       
                                       
                                       




回复

使用道具 举报

懒得打字嘛,点击右侧快捷回复 【右侧内容,后台自定义】
您需要登录后才可以回帖 登录 | 立即加入

本版积分规则

Archiver|小黑屋| 蓝光电影网 |网站地图

Copyright © 2021 Comsenz Inc. Powered by 蓝光电影网

蓝光电影网

本站内容由用户自主分享和转载自互联网,转载目的在于传递更多信息,并不代表本网赞同其观点和对其真实性负责。

如有侵权、违反国家法律政策行为,请联系我们,我们会第一时间及时清除和处理!

举报反馈邮箱:[email protected]

快速回复 返回顶部 返回列表