找回密码

蓝光电影网

查看: 6|回复: 0

[喜剧] 金色年代 My.Favorite.Year.1982.720p.BluRay.x264-SiNNERS 4.38GB

[复制链接]
蓝光币
382
发表于 2019-9-26 17:04:46 | 显示全部楼层 |阅读模式


◎译  名 金色年月
◎片  名 My Favorite Year
◎年  代 1982
◎产  地 美国
◎类  别 笑剧
◎语  言 英语
◎上映日期 1982-10-01
◎IMDb评分  7.4/10 from 8039 users
◎IMDb链接  http://www.imdb.com/title/tt0084370
◎豆瓣评分 7.4/10 from 67 users
◎豆瓣链接 https://movie.douban.com/subject/1295019/
◎片  长 92 分钟
◎导  演 理查德·本杰明 Richard Benjamin
◎编  剧 Norman Steinberg / Dennis Palumbo
◎主  演 彼得·奥图尔 Peter O'Toole
       Mark Linn-Baker
       杰西卡·哈珀 Jessica Harper
       约瑟夫·博洛尼亚 Joseph Bologna
       Bill Macy
       莱妮·卡赞 Lainie Kazan
       Anne De Salvo
       Basil Hoffman
       娄·雅可比 Lou Jacobi
       Adolph Green
       Tony DiBenedetto
       乔治·维内尔 George Wyner
       塞尔玛·戴蒙德 Selma Diamond
       卡梅隆·米切尔 Cameron Mitchell
       Jenny Neumann

◎标  签 笑剧 | 美国 | PeterO'Toole | 1980s | 美国电影 | 1982 | PeterOToole | comedy
◎简  介  
  暂无相关剧情先容
◎获奖情况  
  第55届奥斯卡金像奖(1983)
  最好男配角(提名) 彼得·奥图尔
  1. Video
  2. ID                                       : 1
  3. Format                                   : AVC
  4. Format/Info                              : Advanced Video Codec
  5. Format profile                           : [email protected]
  6. Format settings                          : CABAC / 9 Ref Frames
  7. Format settings, CABAC                   : Yes
  8. Format settings, Reference frames        : 9 frames
  9. Codec ID                                 : V_MPEG4/ISO/AVC
  10. Duration                                 : 1 h 32 min
  11. Bit rate                                 : 5 266 kb/s
  12. Width                                    : 1 280 pixels
  13. Height                                   : 688 pixels
  14. Display aspect ratio                     : 1.85:1
  15. Frame rate mode                          : Constant
  16. Frame rate                               : 23.976 (24000/1001) FPS
  17. Color space                              : YUV
  18. Chroma subsampling                       : 4:2:0
  19. Bit depth                                : 8 bits
  20. Scan type                                : Progressive
  21. Bits/(Pixel*Frame)                       : 0.249
  22. Stream size                              : 3.39 GiB (78%)
  23. Writing library                          : x264 core 158 r2984 3759fcb
  24. Encoding settings                        : cabac=1 / ref=9 / deblock=1:-3:-3 / analyse=0x3:0x113 / me=umh / subme=8 / psy=1 / psy_rd=1.00:0.00 / mixed_ref=1 / me_range=16 / chroma_me=1 / trellis=2 / 8x8dct=1 / cqm=0 / deadzone=21,11 / fast_pskip=0 / chroma_qp_offset=-2 / threads=21 / lookahead_threads=3 / sliced_threads=0 / nr=0 / decimate=1 / interlaced=0 / bluray_compat=0 / constrained_intra=0 / bframes=3 / b_pyramid=2 / b_adapt=1 / b_bias=0 / direct=1 / weightb=1 / open_gop=0 / weightp=2 / keyint=250 / keyint_min=23 / scenecut=40 / intra_refresh=0 / rc_lookahead=40 / rc=2pass / mbtree=1 / bitrate=5266 / ratetol=1.0 / qcomp=0.60 / qpmin=0 / qpmax=69 / qpstep=4 / cplxblur=20.0 / qblur=0.5 / ip_ratio=1.40 / aq=1:1.00
  25. Language                                 : English
  26. Default                                  : Yes
  27. Forced                                   : No

  28. Audio
  29. ID                                       : 2
  30. Format                                   : DTS
  31. Format/Info                              : Digital Theater Systems
  32. Codec ID                                 : A_DTS
  33. Duration                                 : 1 h 32 min
  34. Bit rate mode                            : Constant
  35. Bit rate                                 : 1 509 kb/s
  36. Channel(s)                               : 2 channels
  37. Channel layout                           : L R
  38. Sampling rate                            : 48.0 kHz
  39. Frame rate                               : 93.750 FPS (512 SPF)
  40. Bit depth                                : 24 bits
  41. Compression mode                         : Lossy
  42. Stream size                              : 997 MiB (22%)
  43. Language                                 : English
  44. Default                                  : Yes
  45. Forced                                   : No

  46. Text #1
  47. ID                                       : 3
  48. Format                                   : UTF-8
  49. Codec ID                                 : S_TEXT/UTF8
  50. Codec ID/Info                            : UTF-8 Plain Text
  51. Duration                                 : 1 h 28 min
  52. Bit rate                                 : 74 b/s
  53. Count of elements                        : 1552
  54. Stream size                              : 48.4 KiB (0%)
  55. Language                                 : English
  56. Default                                  : No
  57. Forced                                   : No

  58. Text #2
  59. ID                                       : 4
  60. Format                                   : UTF-8
  61. Codec ID                                 : S_TEXT/UTF8
  62. Codec ID/Info                            : UTF-8 Plain Text
  63. Duration                                 : 1 h 31 min
  64. Bit rate                                 : 77 b/s
  65. Count of elements                        : 1708
  66. Stream size                              : 51.8 KiB (0%)
  67. Title                                    : SDH
  68. Language                                 : English
  69. Default                                  : No
  70. Forced                                   : No

  71. Menu
  72. 00:00:00.000                             : en:00:00:00.000
  73. 00:01:51.945                             : en:00:01:51.945
  74. 00:06:43.486                             : en:00:06:43.486
  75. 00:09:06.129                             : en:00:09:06.129
  76. 00:11:53.671                             : en:00:11:53.671
  77. 00:16:17.810                             : en:00:16:17.810
  78. 00:21:22.281                             : en:00:21:22.281
  79. 00:24:36.642                             : en:00:24:36.642
  80. 00:28:38.592                             : en:00:28:38.592
  81. 00:31:53.036                             : en:00:31:53.036
  82. 00:34:43.164                             : en:00:34:43.164
  83. 00:36:43.993                             : en:00:36:43.993
  84. 00:39:25.947                             : en:00:39:25.947
  85. 00:45:01.032                             : en:00:45:01.032
  86. 00:47:31.974                             : en:00:47:31.974
  87. 00:50:14.345                             : en:00:50:14.345
  88. 00:54:17.004                             : en:00:54:17.004
  89. 00:58:50.110                             : en:00:58:50.110
  90. 01:04:45.381                             : en:01:04:45.381
  91. 01:08:37.530                             : en:01:08:37.530
  92. 01:13:39.749                             : en:01:13:39.749
  93. 01:16:12.401                             : en:01:16:12.401
  94. 01:19:58.961                             : en:01:19:58.961
  95. 01:22:34.616                             : en:01:22:34.616
  96. 01:25:52.189                             : en:01:25:52.189
  97. 01:29:17.894                             : en:01:29:17.894
复制代码




                                       
                                       

                                       
                                       
                                       




回复

使用道具 举报

懒得打字嘛,点击右侧快捷回复 【右侧内容,后台自定义】
您需要登录后才可以回帖 登录 | 立即加入

本版积分规则

Archiver|小黑屋| 蓝光电影网 |网站地图

Copyright © 2021 Comsenz Inc. Powered by 蓝光电影网

蓝光电影网

本站内容由用户自主分享和转载自互联网,转载目的在于传递更多信息,并不代表本网赞同其观点和对其真实性负责。

如有侵权、违反国家法律政策行为,请联系我们,我们会第一时间及时清除和处理!

举报反馈邮箱:[email protected]

快速回复 返回顶部 返回列表