找回密码

蓝光电影网

查看: 177|回复: 0

[科幻] 毛骨悚然 Shivers.1975.1080p.BluRay.X264-AMIABLE 7.65GB

[复制链接]
蓝光币
382
发表于 2020-11-29 09:18:21 | 显示全部楼层 |阅读模式


◎译  名 毛骨悚然/The Parasite Murders/They Came from Within/来自心里/淫魔劫/颤抖
◎片  名 Shivers
◎年  代 1975
◎产  地 加拿大
◎类  别 科幻 / 可骇
◎语  言 英语
◎上映日期 1975-10-10
◎IMDb评分  6.5/10 from 18160 users
◎IMDb链接  https://www.imdb.com/title/tt0073705/
◎豆瓣评分 6.5/10 from 737 users
◎豆瓣链接 https://movie.douban.com/subject/1299606/
◎片  长 87 分钟
◎导  演 大卫·柯南伯格 David Cronenberg
◎编  剧 大卫·柯南伯格 David Cronenberg
◎主  演 保罗·汉普顿 Paul Hampton
       乔·西尔弗 Joe Silver
       琳恩·劳里 Lynn Lowry
       诺拉·约翰逊 Nora Johnson
       瓦拉斯塔·瓦拉纳 Vlasta Vrana
       芭芭拉·斯蒂尔 Barbara Steele
       Fred Doederlein
       琼·布拉克曼 Joan Blackman
       大卫·柯南伯格 David Cronenberg
◎标  签 加拿大 | 大卫·柯南伯格 | 可骇 | 科幻 | DavidCronenberg | 1975 | 惊悚 | Cult
◎简  介


  在蒙特利尔之外的一个孤岛上,有一个叫Starliner的公寓结合体,这是一栋极为现代化和理想的居处,可是在这个天堂一般的楼里,一个叫荷比斯的中年科学家正在用极为残暴的手段把一个年轻的女门生抽打得落空知觉,随后对这个门生开肠破肚,用浓盐酸摧毁内脏,随后自杀。经过观察研讨,一个医生发现,本来荷比斯正在努力于研讨一种壮阳似的寄生虫,他正是操纵阿谁女孩的内脏来培育这类寄生虫,可是他发现他的研讨出现题目后,他决议杀死女孩和自己,只是荷比斯没有发现一点,那就是这个女孩实在是个很是复杂、紊乱的沾染源,接下来,楼里的人一个接一个被这类表面酷似女性生殖器的寄生虫给沾染上,酿成噬血的行尸走肉,继而疯狂的**,未几,他们步出Starliner,到外边去寻觅新的猎物……
  1. Video
  2. ID                                       : 1
  3. Format                                   : AVC
  4. Format/Info                              : Advanced Video Codec
  5. Format profile                           : [email protected]
  6. Format settings                          : CABAC / 4 Ref Frames
  7. Format settings, CABAC                   : Yes
  8. Format settings, Reference frames        : 4 frames
  9. Codec ID                                 : V_MPEG4/ISO/AVC
  10. Duration                                 : 1 h 27 min
  11. Bit rate                                 : 11.8 Mb/s
  12. Width                                    : 1 920 pixels
  13. Height                                   : 1 080 pixels
  14. Display aspect ratio                     : 16:9
  15. Frame rate mode                          : Constant
  16. Frame rate                               : 23.976 (24000/1001/189150) FPS
  17. Color space                              : YUV
  18. Chroma subsampling                       : 4:2:0
  19. Bit depth                                : 8 bits
  20. Scan type                                : Progressive
  21. Bits/(Pixel*Frame)                       : 0.238
  22. Stream size                              : 7.10 GiB (93%)
  23. Writing library                          : x264 core 142 r2479 dd79a61
  24. Encoding settings                        : cabac=1 / ref=4 / deblock=1:-3:-3 / analyse=0x3:0x113 / me=umh / subme=8 / psy=1 / psy_rd=1.00:0.00 / mixed_ref=1 / me_range=16 / chroma_me=1 / trellis=1 / 8x8dct=1 / cqm=0 / deadzone=21,11 / fast_pskip=1 / chroma_qp_offset=-2 / threads=6 / lookahead_threads=1 / sliced_threads=0 / nr=0 / decimate=1 / interlaced=0 / bluray_compat=0 / constrained_intra=0 / bframes=3 / b_pyramid=2 / b_adapt=2 / b_bias=0 / direct=3 / weightb=1 / open_gop=0 / weightp=2 / keyint=240 / keyint_min=24 / scenecut=40 / intra_refresh=0 / rc_lookahead=50 / rc=2pass / mbtree=1 / bitrate=11820 / ratetol=1.0 / qcomp=0.60 / qpmin=0 / qpmax=69 / qpstep=4 / cplxblur=20.0 / qblur=0.5 / ip_ratio=1.40 / aq=1:1.00
  25. Language                                 : English
  26. Default                                  : Yes
  27. Forced                                   : No

  28. Audio
  29. ID                                       : 2
  30. Format                                   : AC-3
  31. Format/Info                              : Audio Coding 3
  32. Commercial name                          : Dolby Digital
  33. Codec ID                                 : A_AC3
  34. Duration                                 : 1 h 27 min
  35. Bit rate mode                            : Constant
  36. Bit rate                                 : 640 kb/s
  37. Channel(s)                               : 1 channel
  38. Channel layout                           : C
  39. Sampling rate                            : 48.0 kHz
  40. Frame rate                               : 31.250 FPS (1536 SPF)
  41. Compression mode                         : Lossy
  42. Stream size                              : 402 MiB (5%)
  43. Language                                 : English
  44. Service kind                             : Complete Main
  45. Default                                  : Yes
  46. Forced                                   : No

  47. Text #1
  48. ID                                       : 3
  49. Format                                   : UTF-8
  50. Codec ID                                 : S_TEXT/UTF8
  51. Codec ID/Info                            : UTF-8 Plain Text
  52. Title                                    : SDH
  53. Language                                 : English
  54. Default                                  : No
  55. Forced                                   : No

  56. Text #2
  57. ID                                       : 4
  58. Format                                   : UTF-8
  59. Codec ID                                 : S_TEXT/UTF8
  60. Codec ID/Info                            : UTF-8 Plain Text
  61. Language                                 : English
  62. Default                                  : No
  63. Forced                                   : No

  64. Menu
  65. 00:00:00.000                             : en:00:00:00.000
  66. 00:07:39.542                             : en:00:07:39.542
  67. 00:13:00.863                             : en:00:13:00.863
  68. 00:20:30.020                             : en:00:20:30.020
  69. 00:28:55.484                             : en:00:28:55.484
  70. 00:35:21.536                             : en:00:35:21.536
  71. 00:43:31.818                             : en:00:43:31.818
  72. 00:51:55.279                             : en:00:51:55.279
  73. 00:58:40.434                             : en:00:58:40.434
  74. 01:04:37.415                             : en:01:04:37.415
  75. 01:11:05.595                             : en:01:11:05.595
  76. 01:19:45.364                             : en:01:19:45.364
复制代码









                                       
                                       

                                       
                                       
                                       




回复

使用道具 举报

懒得打字嘛,点击右侧快捷回复 【右侧内容,后台自定义】
您需要登录后才可以回帖 登录 | 立即加入

本版积分规则

Archiver|小黑屋| 蓝光电影网 |网站地图

Copyright © 2021 Comsenz Inc. Powered by 蓝光电影网

蓝光电影网

本站内容由用户自主分享和转载自互联网,转载目的在于传递更多信息,并不代表本网赞同其观点和对其真实性负责。

如有侵权、违反国家法律政策行为,请联系我们,我们会第一时间及时清除和处理!

举报反馈邮箱:[email protected]

快速回复 返回顶部 返回列表