找回密码

蓝光电影网

查看: 13|回复: 0

[喜剧] 流浪巴黎/巴黎意乱情迷 Lost.in.Paris.2016.1080p.BluRay.x264-PSYCHD 6.56GB

[复制链接]
蓝光币
426
发表于 2020-8-20 09:22:44 | 显示全部楼层 |阅读模式
◎译  名 流浪巴黎 / 巴黎意乱情迷(台) / 丢失巴黎 / Lost in Paris
◎片  名 流浪巴黎 Paris pieds nus
◎年  代 2016
◎国  家 法国 / 比利时
◎类  别 笑剧 / 恋爱
◎语  言 法语 / 英语
◎上映日期 2016-09-02(特柳赖德电影节) / 2017-03-08(法国)
◎IMDb评分  6.2/10 from 2,706 users
◎IMDb链接  http://www.imdb.com/title/tt2936884/
◎豆瓣评分 7.5/10 from  users
◎豆瓣链接 https://movie.douban.com/subject/26457368/
◎片  长 83分钟
◎导  演 多米尼克·阿贝尔 / 菲奥娜·戈登
◎主  演 菲奥娜·戈登
      多米尼克·阿贝尔
      埃玛妞·丽娃
      皮埃尔·里夏尔
      埃米·博萨德·普梅拉
      席琳·洛朗蒂
      夏洛特·达伯里
      大卫·帕勒泰诺
      弗雷德里克·梅特
      纪尧姆·迪力范
      菲利普·马茨
      奥利维尔·帕朗蒂
      法布里斯·米利奇
      吉恩·洛森
      安娜贝尔·科科洛斯
      布鲁诺·罗密
◎简  介

 
  菲欧娜是一个普通的小镇图书治理员,一天她意外收到远在巴黎且已经93岁高龄的玛莎阿姨的乞助信后,立即就从加拿大乘飞机赶赴巴黎。但是当她到了玛莎的家时,发现她早已不见了踪影。机遇偶合下,她碰见了多姆,一个怪僻又任性、和睦却又恼人的流浪汉。多姆担忧不擅长法语的菲欧娜单独一人在巴黎陌头流浪,便一向相伴其左右。法式的诙谐、普通的恋爱,欢笑中又吐露着哀痛,《丢失巴黎》秉持了多米尼克·阿贝尔和菲欧娜·戈登作品一向的怪异气概。
◎获奖情况 
  第4届豆瓣电影年度榜单 (2017)
  评分最高的恋爱片(提名)
  1. Video
  2. ID                                       : 1
  3. Format                                   : AVC
  4. Format/Info                              : Advanced Video Codec
  5. Format profile                           : [email protected]
  6. Format settings                          : CABAC / 4 Ref Frames
  7. Format settings, CABAC                   : Yes
  8. Format settings, Reference frames        : 4 frames
  9. Codec ID                                 : V_MPEG4/ISO/AVC
  10. Duration                                 : 1 h 23 min
  11. Bit rate                                 : 9 784 kb/s
  12. Width                                    : 1 920 pixels
  13. Height                                   : 1 040 pixels
  14. Display aspect ratio                     : 1.85:1
  15. Frame rate mode                          : Constant
  16. Frame rate                               : 23.976 (24000/1001/189150) FPS
  17. Color space                              : YUV
  18. Chroma subsampling                       : 4:2:0
  19. Bit depth                                : 8 bits
  20. Scan type                                : Progressive
  21. Bits/(Pixel*Frame)                       : 0.204
  22. Stream size                              : 5.55 GiB (85%)
  23. Writing library                          : x264 core 152 r2851 ba24899
  24. Encoding settings                        : cabac=1 / ref=4 / deblock=1:-3:-3 / analyse=0x3:0x113 / me=umh / subme=8 / psy=1 / psy_rd=1.00:0.00 / mixed_ref=1 / me_range=32 / chroma_me=1 / trellis=1 / 8x8dct=1 / cqm=0 / deadzone=21,11 / fast_pskip=1 / chroma_qp_offset=-2 / threads=24 / lookahead_threads=4 / sliced_threads=0 / nr=0 / decimate=1 / interlaced=0 / bluray_compat=0 / constrained_intra=0 / bframes=3 / b_pyramid=2 / b_adapt=2 / b_bias=0 / direct=3 / weightb=1 / open_gop=0 / weightp=2 / keyint=240 / keyint_min=24 / scenecut=40 / intra_refresh=0 / rc_lookahead=50 / rc=2pass / mbtree=1 / bitrate=9784 / ratetol=1.0 / qcomp=0.60 / qpmin=0 / qpmax=69 / qpstep=4 / cplxblur=20.0 / qblur=0.5 / ip_ratio=1.40 / aq=3:0.80
  25. Default                                  : Yes
  26. Forced                                   : No
  27. Statistics Tags Issue                    : no_variable_data 1970-01-01 00:00:00 / no_variable_data 2010-02-22 21:41:29
  28. FromStats_BitRate                        : 9788538
  29. FromStats_Duration                       : 01:23:06.982000000
  30. FromStats_FrameCount                     : 119568
  31. FromStats_StreamSize                     : 6101908072

  32. Audio
  33. ID                                       : 2
  34. Format                                   : DTS
  35. Format/Info                              : Digital Theater Systems
  36. Codec ID                                 : A_DTS
  37. Duration                                 : 1 h 23 min
  38. Bit rate mode                            : Constant
  39. Bit rate                                 : 1 509 kb/s
  40. Channel(s)                               : 6 channels
  41. Channel layout                           : C L R Ls Rs LFE
  42. Sampling rate                            : 48.0 kHz
  43. Frame rate                               : 93.750 FPS (512 SPF)
  44. Bit depth                                : 24 bits
  45. Compression mode                         : Lossy
  46. Stream size                              : 897 MiB (13%)
  47. Language                                 : Multiple languages
  48. Default                                  : Yes
  49. Forced                                   : No
  50. Statistics Tags Issue                    : no_variable_data 1970-01-01 00:00:00 / no_variable_data 2010-02-22 21:41:29
  51. FromStats_BitRate                        : 1509000
  52. FromStats_Duration                       : 01:23:07.008000000
  53. FromStats_FrameCount                     : 467532
  54. FromStats_StreamSize                     : 940674384

  55. Text #1
  56. ID                                       : 3
  57. Format                                   : UTF-8
  58. Codec ID                                 : S_TEXT/UTF8
  59. Codec ID/Info                            : UTF-8 Plain Text
  60. Title                                    : Forced
  61. Language                                 : English
  62. Default                                  : Yes
  63. Forced                                   : Yes
  64. Statistics Tags Issue                    : no_variable_data 1970-01-01 00:00:00 / no_variable_data 2010-02-22 21:41:29
  65. FromStats_BitRate                        : 10
  66. FromStats_Duration                       : 01:15:12.425000000
  67. FromStats_FrameCount                     : 238
  68. FromStats_StreamSize                     : 5889

  69. Text #2
  70. ID                                       : 4
  71. Format                                   : UTF-8
  72. Codec ID                                 : S_TEXT/UTF8
  73. Codec ID/Info                            : UTF-8 Plain Text
  74. Language                                 : English
  75. Default                                  : No
  76. Forced                                   : No
  77. Statistics Tags Issue                    : no_variable_data 1970-01-01 00:00:00 / no_variable_data 2010-02-22 21:41:29
  78. FromStats_BitRate                        : 16
  79. FromStats_Duration                       : 01:18:13.438000000
  80. FromStats_FrameCount                     : 481
  81. FromStats_StreamSize                     : 9656

  82. Text #3
  83. ID                                       : 5
  84. Format                                   : UTF-8
  85. Codec ID                                 : S_TEXT/UTF8
  86. Codec ID/Info                            : UTF-8 Plain Text
  87. Title                                    : SDH
  88. Language                                 : English
  89. Default                                  : No
  90. Forced                                   : No
  91. Statistics Tags Issue                    : no_variable_data 1970-01-01 00:00:00 / no_variable_data 2010-02-22 21:41:29
  92. FromStats_BitRate                        : 18
  93. FromStats_Duration                       : 01:21:51.156000000
  94. FromStats_FrameCount                     : 541
  95. FromStats_StreamSize                     : 11075

  96. Menu
  97. 00:00:00.000                             : en:00:00:00.000
  98. 00:04:46.786                             : en:00:04:46.786
  99. 00:12:15.735                             : en:00:12:15.735
  100. 00:17:30.299                             : en:00:17:30.299
  101. 00:24:18.582                             : en:00:24:18.582
  102. 00:29:24.846                             : en:00:29:24.846
  103. 00:33:54.616                             : en:00:33:54.616
  104. 00:39:28.241                             : en:00:39:28.241
  105. 00:44:29.458                             : en:00:44:29.458
  106. 00:51:04.937                             : en:00:51:04.937
  107. 00:57:09.092                             : en:00:57:09.092
  108. 01:02:06.556                             : en:01:02:06.556
  109. 01:08:20.263                             : en:01:08:20.263
  110. 01:19:41.402                             : en:01:19:41.402
  111. 00:10:00.000                             : en:00:10:00.000
复制代码




                                       
                                       

                                       
                                       
                                       




回复

使用道具 举报

懒得打字嘛,点击右侧快捷回复 【右侧内容,后台自定义】
您需要登录后才可以回帖 登录 | 立即加入

本版积分规则

Archiver|小黑屋| 蓝光电影网 |网站地图

Copyright © 2021 Comsenz Inc. Powered by 蓝光电影网

蓝光电影网

本站内容由用户自主分享和转载自互联网,转载目的在于传递更多信息,并不代表本网赞同其观点和对其真实性负责。

如有侵权、违反国家法律政策行为,请联系我们,我们会第一时间及时清除和处理!

举报反馈邮箱:[email protected]

快速回复 返回顶部 返回列表