找回密码

蓝光电影网

查看: 22|回复: 0

[科幻] 神奇旅程/联合缩小军 Fantastic.Voyage.1966.1080p.BluRay.X264-AMIABLE 8.75GB

[复制链接]
蓝光币
386
发表于 2020-11-29 08:26:25 | 显示全部楼层 |阅读模式


◎译  名 奇异旅程/结合缩小军
◎片  名 Fantastic Voyage
◎年  代 1966
◎产  地 美国
◎类  别 科幻 / 冒险
◎语  言 英语
◎上映日期 1966-08-24(美国)
◎IMDb评分  6.8/10 from 16918 users
◎IMDb链接  https://www.imdb.com/title/tt0060397/
◎豆瓣评分 7.9/10 from 1016 users
◎豆瓣链接 https://movie.douban.com/subject/1295915/
◎片  长 100分钟
◎导  演 理查德·弗莱彻 Richard Fleischer
◎编  剧 哈里·克莱纳 Harry Kleiner / 大卫·邓肯 David Duncan / 奥托·克莱门特 Otto Klement / 杰罗姆·比克斯比 Jerome Bixby
◎主  演 史蒂芬·博伊德 Stephen Boyd
       拉蔻儿·薇芝 Raquel Welch
       艾德蒙·奥布莱恩 Edmond O'Brien
       唐纳德·普利森斯 Donald Pleasence
       阿瑟·奥康纳 Arthur O'Connell
       威廉·雷德菲尔德 William Redfield
       阿瑟·肯尼迪 Arthur Kennedy
       让·德尔瓦尔 Jean Del Val
       巴里·科 Barry Coe
       肯·斯科特 Ken Scott
       谢尔比·格兰特 Shelby Grant
       詹姆斯·布洛林 James Brolin
       布伦丹·菲茨杰拉德 Brendan Fitzgerald
◎标  签 科幻 | 美国 | 美国电影 | 1966 | 典范 | 童年回忆 | 童年 | 冒险
◎简  介


  第一部操纵微缩科技深入人体拍摄的科幻片,也是《惊奇大奇航》的前身。故事描写一位苏联科学家从银幕逃到美国,由于他的脑血管遭到特务破坏而命在旦夕。五名美国医生乃被缩小成几百万分之一置于胶片中,注射进科学家体内停止血管手术。本片构想新奇,为科幻片题材开创了新六合。人体内部景观的映象结果不乏取材性,惋惜六十年月的电影特技仍未够高明,明天看来难免使观众对于某些布景感应可笑,不外并不影响本片丰富的文娱性。导演理查德.弗莱尔叙事流利,曾获最好艺术指导和最好视觉结果两项金像奖。
◎获奖情况
  第39届奥斯卡金像奖 ?(1967)
  彩色片最好摄影(提名) 厄内斯特`拉斯洛
  最好剪辑(提名) 威廉·B·墨菲
  最好视觉结果 亚特·克鲁克香克
  最好音效(提名) 沃尔特·罗西
  彩色片最好艺术指导和布景 斯图尔特·A·瑞斯?/?杰克·马丁·史姑娘?/?沃尔特·M·斯科特?/?戴尔·亨尼西
  1. Video
  2. ID                                       : 1
  3. Format                                   : AVC
  4. Format/Info                              : Advanced Video Codec
  5. Format profile                           : [email protected]
  6. Format settings                          : CABAC / 5 Ref Frames
  7. Format settings, CABAC                   : Yes
  8. Format settings, Reference frames        : 5 frames
  9. Codec ID                                 : V_MPEG4/ISO/AVC
  10. Duration                                 : 1 h 40 min
  11. Bit rate                                 : 10.9 Mb/s
  12. Width                                    : 1 920 pixels
  13. Height                                   : 816 pixels
  14. Display aspect ratio                     : 2.35:1
  15. Frame rate mode                          : Constant
  16. Frame rate                               : 23.976 (24000/1001/189150) FPS
  17. Color space                              : YUV
  18. Chroma subsampling                       : 4:2:0
  19. Bit depth                                : 8 bits
  20. Scan type                                : Progressive
  21. Bits/(Pixel*Frame)                       : 0.291
  22. Stream size                              : 7.51 GiB (86%)
  23. Writing library                          : x264 core 138 r2358 9e941d1
  24. Encoding settings                        : cabac=1 / ref=5 / deblock=1:-3:-3 / analyse=0x3:0x113 / me=umh / subme=8 / psy=1 / psy_rd=1.00:0.00 / mixed_ref=1 / me_range=16 / chroma_me=1 / trellis=1 / 8x8dct=1 / cqm=0 / deadzone=21,11 / fast_pskip=1 / chroma_qp_offset=-2 / threads=12 / lookahead_threads=2 / sliced_threads=0 / nr=0 / decimate=1 / interlaced=0 / bluray_compat=0 / constrained_intra=0 / bframes=3 / b_pyramid=2 / b_adapt=2 / b_bias=0 / direct=3 / weightb=1 / open_gop=0 / weightp=2 / keyint=240 / keyint_min=24 / scenecut=40 / intra_refresh=0 / rc_lookahead=50 / rc=2pass / mbtree=1 / bitrate=10930 / ratetol=1.0 / qcomp=0.60 / qpmin=0 / qpmax=69 / qpstep=4 / cplxblur=20.0 / qblur=0.5 / ip_ratio=1.40 / aq=1:1.00
  25. Language                                 : English
  26. Default                                  : Yes
  27. Forced                                   : No

  28. Audio
  29. ID                                       : 2
  30. Format                                   : DTS
  31. Format/Info                              : Digital Theater Systems
  32. Codec ID                                 : A_DTS
  33. Duration                                 : 1 h 40 min
  34. Bit rate mode                            : Constant
  35. Bit rate                                 : 1 509 kb/s
  36. Channel(s)                               : 6 channels
  37. Channel layout                           : C L R Ls Rs LFE
  38. Sampling rate                            : 48.0 kHz
  39. Frame rate                               : 93.750 FPS (512 SPF)
  40. Bit depth                                : 24 bits
  41. Compression mode                         : Lossy
  42. Stream size                              : 1.06 GiB (12%)
  43. Language                                 : English
  44. Default                                  : Yes
  45. Forced                                   : No

  46. Text #1
  47. ID                                       : 3
  48. Format                                   : UTF-8
  49. Codec ID                                 : S_TEXT/UTF8
  50. Codec ID/Info                            : UTF-8 Plain Text
  51. Title                                    : SDH
  52. Language                                 : English
  53. Default                                  : No
  54. Forced                                   : No

  55. Text #2
  56. ID                                       : 4
  57. Format                                   : UTF-8
  58. Codec ID                                 : S_TEXT/UTF8
  59. Codec ID/Info                            : UTF-8 Plain Text
  60. Language                                 : English
  61. Default                                  : No
  62. Forced                                   : No

  63. Menu
  64. 00:00:00.000                             : en:00:00:00.000
  65. 00:04:05.954                             : en:00:04:05.954
  66. 00:05:48.515                             : en:00:05:48.515
  67. 00:10:44.435                             : en:00:10:44.435
  68. 00:13:45.158                             : en:00:13:45.158
  69. 00:16:30.406                             : en:00:16:30.406
  70. 00:23:19.481                             : en:00:23:19.481
  71. 00:28:12.441                             : en:00:28:12.441
  72. 00:34:04.542                             : en:00:34:04.542
  73. 00:35:23.246                             : en:00:35:23.246
  74. 00:38:18.421                             : en:00:38:18.421
  75. 00:41:45.920                             : en:00:41:45.920
  76. 00:43:25.937                             : en:00:43:25.937
  77. 00:47:56.415                             : en:00:47:56.415
  78. 00:53:58.193                             : en:00:53:58.193
  79. 01:07:03.186                             : en:01:07:03.186
  80. 01:10:57.587                             : en:01:10:57.587
  81. 01:16:05.102                             : en:01:16:05.102
  82. 01:22:08.799                             : en:01:22:08.799
  83. 01:27:51.266                             : en:01:27:51.266
  84. 01:32:31.713                             : en:01:32:31.713
  85. 01:34:00.176                             : en:01:34:00.176
  86. 01:37:29.927                             : en:01:37:29.927
  87. 01:38:59.225                             : en:01:38:59.225
复制代码








                                       
                                       

                                       
                                       
                                       




回复

使用道具 举报

懒得打字嘛,点击右侧快捷回复 【右侧内容,后台自定义】
您需要登录后才可以回帖 登录 | 立即加入

本版积分规则

Archiver|小黑屋| 蓝光电影网 |网站地图

Copyright © 2021 Comsenz Inc. Powered by 蓝光电影网

蓝光电影网

本站内容由用户自主分享和转载自互联网,转载目的在于传递更多信息,并不代表本网赞同其观点和对其真实性负责。

如有侵权、违反国家法律政策行为,请联系我们,我们会第一时间及时清除和处理!

举报反馈邮箱:[email protected]

快速回复 返回顶部 返回列表