找回密码

蓝光电影网

查看: 22|回复: 0

[恐怖] 魔鬼诞生/浮士德:爱的魔鬼 Faust.Love.of.the.Damned.2000.1080p.BluRay.x264-WATCHABLE 6.67GB

[复制链接]
蓝光币
426
发表于 2020-12-16 17:41:22 | 显示全部楼层 |阅读模式
[img][/img]

◎译  名 魔鬼诞生/浮士德:爱的魔鬼
◎片  名 Faust: Love of the Damned
◎年  代 2000
◎产  地 美国,西班牙
◎类  别 可骇 / 奇异
◎语  言 英语
◎上映日期 2001-02-02
◎IMDb评分  4.3/10 from 3681 users
◎IMDb链接  https://www.imdb.com/title/tt0223268/
◎豆瓣评分 6.5/10 from 63 users
◎豆瓣链接 https://movie.douban.com/subject/1303633/
◎片  长 98 分钟
◎导  演 布莱恩·尤兹纳 Brian Yuzna
◎编  剧 Miguel Tejada
◎主  演 弗朗西斯科·梅斯特 Francisco Maestre
       罗伯特·帕特森 Robert Paterson
       安德鲁·迪沃夫 Andrew Divoff
       杰弗瑞·考姆斯 Jeffrey Combs
       米歇尔·珍娜 Michelle Jenner
       卡洛斯·拉萨尔特 Carlos Lasarte
       Marc Martínez
       朱尼克斯 伊诺西恩 Junix Inocian
       费米·雷克萨奇 Fermí Reixach
       Mònica Van Campen
       弗兰·拉奥斯 Ferran Lahoz
       Pedro Moya
       马克·福斯特 Mark Frost
◎标  签 可骇 | 魔鬼诞生 | 血腥 | 情色 | 美国 | 美国电影 | 惊悚 | 暴力
◎简  介


  约翰得了严重的精神疾病,是一个手持钩刀的冷血杀手,而他也许也是唯一能看清人类真脸孔的人。
  
  某法人机构的经营者M师长是现世的魔鬼,灵魂里潜藏著恶魔的愿望,而他的心理医师杰德则是唯一能看穿他真脸孔的人。
  
  M师长正一步步的踏进“浮士德”的传奇际遇里,到底天堂只是一种幻象,还是一个实在的天下?
  1. Video
  2. ID                                       : 1
  3. Format                                   : AVC
  4. Format/Info                              : Advanced Video Codec
  5. Format profile                           : [email protected]
  6. Format settings                          : CABAC / 4 Ref Frames
  7. Format settings, CABAC                   : Yes
  8. Format settings, Reference frames        : 4 frames
  9. Codec ID                                 : V_MPEG4/ISO/AVC
  10. Duration                                 : 1 h 40 min
  11. Bit rate                                 : 5 434 kb/s
  12. Width                                    : 1 920 pixels
  13. Height                                   : 1 080 pixels
  14. Display aspect ratio                     : 16:9
  15. Frame rate mode                          : Constant
  16. Frame rate                               : 23.976 (24000/1001/189150) FPS
  17. Color space                              : YUV
  18. Chroma subsampling                       : 4:2:0
  19. Bit depth                                : 8 bits
  20. Scan type                                : Progressive
  21. Bits/(Pixel*Frame)                       : 0.109
  22. Stream size                              : 3.83 GiB (57%)
  23. Title                                    : Faust: Love of the Damned (2000)
  24. Writing library                          : x264 core 161 r3027 4121277
  25. Encoding settings                        : cabac=1 / ref=4 / deblock=1:0:0 / analyse=0x3:0x133 / me=umh / subme=9 / psy=1 / psy_rd=1.00:0.00 / mixed_ref=1 / me_range=16 / chroma_me=1 / trellis=2 / 8x8dct=1 / cqm=0 / deadzone=21,11 / fast_pskip=1 / chroma_qp_offset=-2 / threads=12 / lookahead_threads=1 / sliced_threads=0 / nr=0 / decimate=1 / interlaced=0 / bluray_compat=0 / constrained_intra=0 / bframes=3 / b_pyramid=2 / b_adapt=2 / b_bias=0 / direct=3 / weightb=1 / open_gop=0 / weightp=2 / keyint=250 / keyint_min=23 / scenecut=40 / intra_refresh=0 / rc_lookahead=60 / rc=crf / mbtree=1 / crf=17.0 / qcomp=0.60 / qpmin=0 / qpmax=69 / qpstep=4 / ip_ratio=1.40 / aq=1:1.00
  26. Default                                  : Yes
  27. Forced                                   : No
  28. Color range                              : Limited
  29. Color primaries                          : BT.709
  30. Transfer characteristics                 : BT.709
  31. Matrix coefficients                      : BT.709
  32. Audio
  33. ID                                       : 2
  34. Format                                   : DTS XLL
  35. Format/Info                              : Digital Theater Systems
  36. Commercial name                          : DTS-HD Master Audio
  37. Codec ID                                 : A_DTS
  38. Duration                                 : 1 h 40 min
  39. Bit rate mode                            : Variable
  40. Bit rate                                 : 4 030 kb/s
  41. Channel(s)                               : 6 channels
  42. Channel layout                           : C L R Ls Rs LFE
  43. Sampling rate                            : 48.0 kHz
  44. Frame rate                               : 93.750 FPS (512 SPF)
  45. Bit depth                                : 24 bits
  46. Compression mode                         : Lossless
  47. Stream size                              : 2.84 GiB (43%)
  48. Title                                    : English
  49. Language                                 : English
  50. Default                                  : Yes
  51. Forced                                   : No
  52. Menu
  53. 00:00:00.000                             : en:Chapter 01
  54. 00:16:24.233                             : en:Chapter 02
  55. 00:34:22.352                             : en:Chapter 03
  56. 00:48:52.721                             : en:Chapter 04
  57. 01:03:52.203                             : en:Chapter 05
  58. 01:21:01.940                             : en:Chapter 06
  59. 01:36:44.215                             : en:Chapter 07
复制代码



                                       
                                       

                                       
                                       
                                       




回复

使用道具 举报

懒得打字嘛,点击右侧快捷回复 【右侧内容,后台自定义】
您需要登录后才可以回帖 登录 | 立即加入

本版积分规则

Archiver|小黑屋| 蓝光电影网 |网站地图

Copyright © 2021 Comsenz Inc. Powered by 蓝光电影网

蓝光电影网

本站内容由用户自主分享和转载自互联网,转载目的在于传递更多信息,并不代表本网赞同其观点和对其真实性负责。

如有侵权、违反国家法律政策行为,请联系我们,我们会第一时间及时清除和处理!

举报反馈邮箱:[email protected]

快速回复 返回顶部 返回列表