找回密码

蓝光电影网

查看: 9|回复: 0

[惊悚] 肌肉 Muscle.2019.720p.BluRay.x264-SCARE 5.87GB

[复制链接]
蓝光币
382
发表于 2021-2-12 19:34:38 | 显示全部楼层 |阅读模式


◎译  名 肌肉
◎片  名 Muscle
◎年  代 2019
◎产  地 英国
◎类  别 惊悚
◎语  言 英语
◎上映日期 2019-10-11(伦敦电影节)
◎IMDb评分  6/10 from 256 users
◎IMDb链接  https://www.imdb.com/title/tt7082742/
◎豆瓣评分 /10 from 0 users
◎豆瓣链接 https://movie.douban.com/subject/30258816/
◎片  长 109分钟
◎导  演 Gerard Johnson
◎编  剧 Gerard Johnson
◎主  演 洛林·布伦斯 Lorraine Burroughs
       克雷格·法布拉斯 Craig Fairbrass
       波丽·麦伯利 Polly Maberly
       西妮德·马修斯 Sinead Matthews
       彼得·费迪南多 Peter Ferdinando
       卡文·克勒金 Cavan Clerkin
       尼尔·格雷格·富尔顿 Niall Greig Fulton
       阿里·库克 Ali Cook
       戈登·布朗 Gordon Brown
       尼克·罗恩特里 Nick Rowntree
◎标  签 惊悚 | 己亥 | [歐美] | P-TallinnA入围主比赛 | Gerard_Johnson | DVD2019
◎简  介


  Build him up. Tear him apart.
◎获奖情况
  第22届英国自力电影奖 ?(2019)
  最好摸索奖(提名)
  1. Video
  2. ID                                       : 1
  3. Format                                   : AVC
  4. Format/Info                              : Advanced Video Codec
  5. Format profile                           : [email protected]
  6. Format settings                          : CABAC / 12 Ref Frames
  7. Format settings, CABAC                   : Yes
  8. Format settings, Reference frames        : 12 frames
  9. Codec ID                                 : V_MPEG4/ISO/AVC
  10. Duration                                 : 1 h 50 min
  11. Bit rate                                 : 6 950 kb/s
  12. Width                                    : 1 280 pixels
  13. Height                                   : 536 pixels
  14. Display aspect ratio                     : 2.40:1
  15. Frame rate mode                          : Constant
  16. Frame rate                               : 24.000 FPS
  17. Color space                              : YUV
  18. Chroma subsampling                       : 4:2:0
  19. Bit depth                                : 8 bits
  20. Scan type                                : Progressive
  21. Bits/(Pixel*Frame)                       : 0.422
  22. Stream size                              : 5.37 GiB (91%)
  23. Writing library                          : x264 core 161 r3043 59c0609
  24. Encoding settings                        : cabac=1 / ref=12 / deblock=1:-3:-3 / analyse=0x3:0x133 / me=umh / subme=10 / psy=1 / psy_rd=1.20:0.00 / mixed_ref=1 / me_range=24 / chroma_me=1 / trellis=2 / 8x8dct=1 / cqm=0 / deadzone=21,11 / fast_pskip=0 / chroma_qp_offset=-2 / threads=17 / lookahead_threads=2 / sliced_threads=0 / nr=0 / decimate=0 / interlaced=0 / bluray_compat=0 / constrained_intra=0 / bframes=8 / b_pyramid=2 / b_adapt=2 / b_bias=0 / direct=3 / weightb=1 / open_gop=0 / weightp=2 / keyint=250 / keyint_min=24 / scenecut=40 / intra_refresh=0 / rc_lookahead=60 / rc=crf / mbtree=1 / crf=16.0 / qcomp=0.60 / qpmin=0 / qpmax=69 / qpstep=4 / ip_ratio=1.40 / aq=3:0.90
  25. Default                                  : Yes
  26. Forced                                   : No
  27. Color range                              : Limited
  28. Matrix coefficients                      : BT.709

  29. Audio
  30. ID                                       : 2
  31. Format                                   : AC-3
  32. Format/Info                              : Audio Coding 3
  33. Commercial name                          : Dolby Digital
  34. Codec ID                                 : A_AC3
  35. Duration                                 : 1 h 50 min
  36. Bit rate mode                            : Constant
  37. Bit rate                                 : 640 kb/s
  38. Channel(s)                               : 6 channels
  39. Channel layout                           : L R C LFE Ls Rs
  40. Sampling rate                            : 48.0 kHz
  41. Frame rate                               : 31.250 FPS (1536 SPF)
  42. Compression mode                         : Lossy
  43. Stream size                              : 506 MiB (8%)
  44. Language                                 : English
  45. Service kind                             : Complete Main
  46. Default                                  : Yes
  47. Forced                                   : No

  48. Text
  49. ID                                       : 3
  50. Format                                   : PGS
  51. Muxing mode                              : zlib
  52. Codec ID                                 : S_HDMV/PGS
  53. Codec ID/Info                            : Picture based subtitle format used on BDs/HD-DVDs
  54. Duration                                 : 1 h 46 min
  55. Bit rate                                 : 41.1 kb/s
  56. Count of elements                        : 3072
  57. Stream size                              : 31.3 MiB (1%)
  58. Title                                    : SDH
  59. Language                                 : English
  60. Default                                  : No
  61. Forced                                   : No

  62. Menu
  63. 00:00:00.000                             : en:Chapter 01
  64. 00:07:24.750                             : en:Chapter 02
  65. 00:16:43.167                             : en:Chapter 03
  66. 00:27:17.042                             : en:Chapter 04
  67. 00:34:07.417                             : en:Chapter 05
  68. 00:44:40.292                             : en:Chapter 06
  69. 00:58:30.208                             : en:Chapter 07
  70. 01:05:31.958                             : en:Chapter 08
  71. 01:13:25.000                             : en:Chapter 09
  72. 01:23:55.667                             : en:Chapter 10
  73. 01:32:48.375                             : en:Chapter 11
  74. 01:40:47.708                             : en:Chapter 12
复制代码




                                       
                                       

                                       
                                       
                                       




回复

使用道具 举报

懒得打字嘛,点击右侧快捷回复 【右侧内容,后台自定义】
您需要登录后才可以回帖 登录 | 立即加入

本版积分规则

Archiver|小黑屋| 蓝光电影网 |网站地图

Copyright © 2021 Comsenz Inc. Powered by 蓝光电影网

蓝光电影网

本站内容由用户自主分享和转载自互联网,转载目的在于传递更多信息,并不代表本网赞同其观点和对其真实性负责。

如有侵权、违反国家法律政策行为,请联系我们,我们会第一时间及时清除和处理!

举报反馈邮箱:[email protected]

快速回复 返回顶部 返回列表