找回密码

蓝光电影网

查看: 6|回复: 0

[惊悚] 严惩 Snuff.1976.720p.BluRay.x264-YAMG 4.38GB

[复制链接]
蓝光币
382
发表于 2021-2-12 09:04:04 | 显示全部楼层 |阅读模式


◎译  名 重办/Big Snuff/El ángel de la muerte/Snuff AKA American Cannibale
◎片  名 Snuff
◎年  代 1976
◎产  地 阿根廷,美国,加拿大
◎类  别 惊悚 / 可骇
◎语  言 英语
◎上映日期 1976-01-16
◎IMDb评分  2.8/10 from 1541 users
◎IMDb链接  https://www.imdb.com/title/tt0072184/
◎豆瓣评分 /10 from 0 users
◎豆瓣链接 https://movie.douban.com/subject/2334091/
◎片  长 80 分钟
◎导  演  迈克尔·芬德雷 Michael Findlay
◎编  剧  迈克尔·芬德雷 Michael Findlay
◎标  签 血腥 | 可骇 | 暴力\血腥\变态 | 渴望获得这电影的bt种子 | Michael_Findlay | 惊悚 | W-Cult | 超级无聊
◎简  介


  暂无相关剧情先容
  1. Video
  2. ID                                       : 1
  3. Format                                   : AVC
  4. Format/Info                              : Advanced Video Codec
  5. Format profile                           : [email protected]
  6. Format settings                          : CABAC / 9 Ref Frames
  7. Format settings, CABAC                   : Yes
  8. Format settings, Reference frames        : 9 frames
  9. Codec ID                                 : V_MPEG4/ISO/AVC
  10. Duration                                 : 1 h 20 min
  11. Bit rate                                 : 7 556 kb/s
  12. Width                                    : 1 200 pixels
  13. Height                                   : 720 pixels
  14. Display aspect ratio                     : 5:3
  15. Frame rate mode                          : Constant
  16. Frame rate                               : 23.976 (24000/1001/189150) FPS
  17. Color space                              : YUV
  18. Chroma subsampling                       : 4:2:0
  19. Bit depth                                : 8 bits
  20. Scan type                                : Progressive
  21. Bits/(Pixel*Frame)                       : 0.365
  22. Stream size                              : 4.22 GiB (96%)
  23. Writing library                          : x264 core 161 r3043 59c0609
  24. Encoding settings                        : cabac=1 / ref=9 / deblock=1:-3:-3 / analyse=0x3:0x133 / me=umh / subme=10 / psy=1 / psy_rd=1.00:0.00 / mixed_ref=1 / me_range=32 / chroma_me=1 / trellis=2 / 8x8dct=1 / cqm=0 / deadzone=21,11 / fast_pskip=0 / chroma_qp_offset=-2 / threads=22 / lookahead_threads=3 / sliced_threads=0 / nr=0 / decimate=0 / interlaced=0 / bluray_compat=0 / constrained_intra=0 / bframes=8 / b_pyramid=2 / b_adapt=2 / b_bias=0 / direct=3 / weightb=1 / open_gop=0 / weightp=2 / keyint=250 / keyint_min=23 / scenecut=40 / intra_refresh=0 / rc=crf / mbtree=0 / crf=18.0 / qcomp=0.60 / qpmin=0 / qpmax=69 / qpstep=4 / ip_ratio=1.40 / pb_ratio=1.30 / aq=3:0.60
  25. Language                                 : English
  26. Default                                  : Yes
  27. Forced                                   : No
  28. Color range                              : Limited
  29. Matrix coefficients                      : BT.709

  30. Audio
  31. ID                                       : 2
  32. Format                                   : FLAC
  33. Format/Info                              : Free Lossless Audio Codec
  34. Codec ID                                 : A_FLAC
  35. Duration                                 : 1 h 20 min
  36. Bit rate mode                            : Variable
  37. Bit rate                                 : 275 kb/s
  38. Channel(s)                               : 1 channel
  39. Channel layout                           : C
  40. Sampling rate                            : 48.0 kHz
  41. Frame rate                               : 11.719 FPS (4096 SPF)
  42. Bit depth                                : 16 bits
  43. Compression mode                         : Lossless
  44. Stream size                              : 157 MiB (4%)
  45. Writing library                          : libFLAC 1.3.3 (UTC 2019-08-04)
  46. Language                                 : English
  47. Default                                  : Yes
  48. Forced                                   : No

  49. Text #1
  50. ID                                       : 3
  51. Format                                   : UTF-8
  52. Codec ID                                 : S_TEXT/UTF8
  53. Codec ID/Info                            : UTF-8 Plain Text
  54. Duration                                 : 1 h 17 min
  55. Bit rate                                 : 40 b/s
  56. Count of elements                        : 652
  57. Stream size                              : 22.9 KiB (0%)
  58. Title                                    : English
  59. Language                                 : English
  60. Default                                  : No
  61. Forced                                   : No

  62. Text #2
  63. ID                                       : 4
  64. Format                                   : UTF-8
  65. Codec ID                                 : S_TEXT/UTF8
  66. Codec ID/Info                            : UTF-8 Plain Text
  67. Duration                                 : 1 h 19 min
  68. Bit rate                                 : 42 b/s
  69. Count of elements                        : 741
  70. Stream size                              : 24.9 KiB (0%)
  71. Title                                    : English SDH
  72. Language                                 : English
  73. Default                                  : No
  74. Forced                                   : No

  75. Text #3
  76. ID                                       : 5
  77. Format                                   : PGS
  78. Muxing mode                              : zlib
  79. Codec ID                                 : S_HDMV/PGS
  80. Codec ID/Info                            : Picture based subtitle format used on BDs/HD-DVDs
  81. Duration                                 : 1 h 19 min
  82. Bit rate                                 : 25.4 kb/s
  83. Count of elements                        : 1483
  84. Stream size                              : 14.5 MiB (0%)
  85. Title                                    : English SDH PGS
  86. Language                                 : English
  87. Default                                  : No
  88. Forced                                   : No

  89. Menu
  90. 00:00:00.000                             : en:Chapter 01
  91. 00:05:04.888                             : en:Chapter 02
  92. 00:08:33.722                             : en:Chapter 03
  93. 00:14:42.965                             : en:Chapter 04
  94. 00:19:56.696                             : en:Chapter 05
  95. 00:24:07.529                             : en:Chapter 06
  96. 00:28:59.321                             : en:Chapter 07
  97. 00:34:12.759                             : en:Chapter 08
  98. 00:41:05.046                             : en:Chapter 09
  99. 00:47:16.834                             : en:Chapter 10
  100. 00:52:42.409                             : en:Chapter 11
  101. 00:57:34.868                             : en:Chapter 12
  102. 01:03:30.557                             : en:Chapter 13
  103. 01:08:33.026                             : en:Chapter 14
  104. 01:14:26.671                             : en:Chapter 15
复制代码




                                       
                                       

                                       
                                       
                                       




回复

使用道具 举报

懒得打字嘛,点击右侧快捷回复 【右侧内容,后台自定义】
您需要登录后才可以回帖 登录 | 立即加入

本版积分规则

Archiver|小黑屋| 蓝光电影网 |网站地图

Copyright © 2021 Comsenz Inc. Powered by 蓝光电影网

蓝光电影网

本站内容由用户自主分享和转载自互联网,转载目的在于传递更多信息,并不代表本网赞同其观点和对其真实性负责。

如有侵权、违反国家法律政策行为,请联系我们,我们会第一时间及时清除和处理!

举报反馈邮箱:[email protected]

快速回复 返回顶部 返回列表