找回密码

蓝光电影网

查看: 11|回复: 0

[动作] 肖塔 Enforcement.2020.DANISH.1080p.BluRay.x264.DD5.1-EA 9.41GB

[复制链接]
蓝光币
382
发表于 2021-5-22 08:54:53 | 显示全部楼层 |阅读模式
[img][/img]

◎译  名 肖塔/Enforcement
◎片  名 Shorta
◎年  代 2020
◎产  地 丹麦
◎类  别 行动
◎语  言 丹麦语
◎上映日期 2020-09-04(威尼斯电影节) / 2020-10-08(丹麦)
◎豆瓣评分 6.7/10 from 138 users
◎豆瓣链接 https://movie.douban.com/subject/34909123/
◎片  长 108分钟
◎导  演 Frederik Louis Hviid / Anders ?lholm
◎编  剧 Frederik Louis Hviid / Anders ?lholm
◎主  演 雅各布·乌尔里克·罗曼 Jakob Ulrik Lohmann
       西蒙·西尔斯 Simon Sears
       厄兹勒姆·萨格拉马克 ?zlem Saglanmak
◎标  签 丹麦 | 犯罪 | 行动 | 丹麦电影 | 剧情 | 2020 | 惊悚 | 电影
◎简  介


  The exact details of what took place while Talib Ben Hassi, 19, was in police custody remain unclear. Police officers Jens and Mike are on routine patrol in Svaleg?rden’s ghetto when news of Talib’s death comes in over the radio, igniting uncontrollable pent-up rage in the ghetto’s youth who lust for revenge. Suddenly, the two officers find themselves in a fair game and must fight tooth and claw to find a way out.
◎获奖情况
  第77届威尼斯电影节 ?(2020)
  国际影评人周奖(提名) FrederikLouisHviid?/?Anders?lholm
  1. Video
  2. ID                                       : 1
  3. Format                                   : AVC
  4. Format/Info                              : Advanced Video Codec
  5. Format profile                           : [email protected]
  6. Format settings                          : CABAC / 5 Ref Frames
  7. Format settings, CABAC                   : Yes
  8. Format settings, Reference frames        : 5 frames
  9. Codec ID                                 : V_MPEG4/ISO/AVC
  10. Duration                                 : 1 h 47 min
  11. Bit rate                                 : 12.1 Mb/s
  12. Width                                    : 1 920 pixels
  13. Height                                   : 806 pixels
  14. Display aspect ratio                     : 2.40:1
  15. Frame rate mode                          : Constant
  16. Frame rate                               : 24.000 FPS
  17. Color space                              : YUV
  18. Chroma subsampling                       : 4:2:0
  19. Bit depth                                : 8 bits
  20. Scan type                                : Progressive
  21. Bits/(Pixel*Frame)                       : 0.325
  22. Stream size                              : 9.09 GiB (97%)
  23. Title                                    : -EA
  24. Writing library                          : x264 core 163 r3059+79M f2a8266 t_mod_test_xavc [(8 & 10)[email protected] X86_64]
  25. Encoding settings                        : cabac=1 / ref=5 / deblock=1:-3:-3 / analyse=0x3:0x133 / me=umh / subme=10 / psy=1 / fade_compensate=0.00 / psy_rd=0.97:0.00 / mixed_ref=1 / me_range=32 / chroma_me=1 / trellis=2 / 8x8dct=1 / cqm=0 / deadzone=21,11 / fast_pskip=0 / chroma_qp_offset=-2 / threads=18 / lookahead_threads=4 / sliced_threads=0 / nr=0 / decimate=0 / interlaced=0 / bluray_compat=0 / constrained_intra=0 / fgo=0 / bframes=10 / b_pyramid=2 / b_adapt=2 / b_bias=0 / direct=3 / weightb=1 / open_gop=0 / weightp=2 / keyint=240 / keyint_min=24 / scenecut=40 / intra_refresh=0 / rc_lookahead=60 / rc=crf / mbtree=0 / crf=21.0500 / qcomp=0.70 / qpmin=0:0:0 / qpmax=69:69:69 / qpstep=4 / vbv_maxrate=62500 / vbv_bufsize=78125 / crf_max=0.0 / nal_hrd=none / filler=0 / ip_ratio=1.35 / pb_ratio=1.25 / aq=3:0.80 / aq-sensitivity=10.00 / aq-factor=1.00:1.00:1.00 / aq2=0 / aq3=0
  26. Language                                 : Danish
  27. Default                                  : Yes
  28. Forced                                   : No
  29. Color range                              : Limited
  30. Color primaries                          : BT.709
  31. Transfer characteristics                 : BT.709
  32. Matrix coefficients                      : BT.709
  33. Audio
  34. ID                                       : 2
  35. Format                                   : AC-3
  36. Format/Info                              : Audio Coding 3
  37. Commercial name                          : Dolby Digital
  38. Codec ID                                 : A_AC3
  39. Duration                                 : 1 h 47 min
  40. Bit rate mode                            : Constant
  41. Bit rate                                 : 384 kb/s
  42. Channel(s)                               : 6 channels
  43. Channel layout                           : L R C LFE Ls Rs
  44. Sampling rate                            : 48.0 kHz
  45. Frame rate                               : 31.250 FPS (1536 SPF)
  46. Compression mode                         : Lossy
  47. Stream size                              : 296 MiB (3%)
  48. Language                                 : Danish
  49. Service kind                             : Complete Main
  50. Default                                  : Yes
  51. Forced                                   : No
  52. Text #1
  53. ID                                       : 3
  54. Format                                   : UTF-8
  55. Codec ID                                 : S_TEXT/UTF8
  56. Codec ID/Info                            : UTF-8 Plain Text
  57. Duration                                 : 1 h 43 min
  58. Bit rate                                 : 35 b/s
  59. Count of elements                        : 749
  60. Stream size                              : 27.4 KiB (0%)
  61. Title                                    : srt
  62. Language                                 : English
  63. Default                                  : Yes
  64. Forced                                   : Yes
  65. Text #2
  66. ID                                       : 4
  67. Format                                   : PGS
  68. Muxing mode                              : zlib
  69. Codec ID                                 : S_HDMV/PGS
  70. Codec ID/Info                            : Picture based subtitle format used on BDs/HD-DVDs
  71. Duration                                 : 1 h 43 min
  72. Bit rate                                 : 19.0 kb/s
  73. Count of elements                        : 1498
  74. Stream size                              : 14.1 MiB (0%)
  75. Title                                    : sup
  76. Language                                 : English
  77. Default                                  : No
  78. Forced                                   : No
  79. Text #3
  80. ID                                       : 5
  81. Format                                   : PGS
  82. Muxing mode                              : zlib
  83. Codec ID                                 : S_HDMV/PGS
  84. Codec ID/Info                            : Picture based subtitle format used on BDs/HD-DVDs
  85. Duration                                 : 37 s 875 ms
  86. Bit rate                                 : 14.2 kb/s
  87. Count of elements                        : 10
  88. Stream size                              : 65.6 KiB (0%)
  89. Title                                    : sup [F]
  90. Language                                 : Danish
  91. Default                                  : No
  92. Forced                                   : No
  93. Text #4
  94. ID                                       : 6
  95. Format                                   : PGS
  96. Muxing mode                              : zlib
  97. Codec ID                                 : S_HDMV/PGS
  98. Codec ID/Info                            : Picture based subtitle format used on BDs/HD-DVDs
  99. Duration                                 : 1 h 46 min
  100. Bit rate                                 : 13.5 kb/s
  101. Count of elements                        : 1388
  102. Stream size                              : 10.4 MiB (0%)
  103. Title                                    : sup
  104. Language                                 : Danish
  105. Default                                  : No
  106. Forced                                   : No
  107. Text #5
  108. ID                                       : 7
  109. Format                                   : PGS
  110. Muxing mode                              : zlib
  111. Codec ID                                 : S_HDMV/PGS
  112. Codec ID/Info                            : Picture based subtitle format used on BDs/HD-DVDs
  113. Duration                                 : 1 h 46 min
  114. Bit rate                                 : 13.2 kb/s
  115. Count of elements                        : 1380
  116. Stream size                              : 10.1 MiB (0%)
  117. Title                                    : sup
  118. Language                                 : Finnish
  119. Default                                  : No
  120. Forced                                   : No
  121. Text #6
  122. ID                                       : 8
  123. Format                                   : PGS
  124. Muxing mode                              : zlib
  125. Codec ID                                 : S_HDMV/PGS
  126. Codec ID/Info                            : Picture based subtitle format used on BDs/HD-DVDs
  127. Duration                                 : 1 h 46 min
  128. Bit rate                                 : 12.9 kb/s
  129. Count of elements                        : 1378
  130. Stream size                              : 9.84 MiB (0%)
  131. Title                                    : sup
  132. Language                                 : Norwegian
  133. Default                                  : No
  134. Forced                                   : No
  135. Text #7
  136. ID                                       : 9
  137. Format                                   : PGS
  138. Muxing mode                              : zlib
  139. Codec ID                                 : S_HDMV/PGS
  140. Codec ID/Info                            : Picture based subtitle format used on BDs/HD-DVDs
  141. Duration                                 : 1 h 46 min
  142. Bit rate                                 : 13.9 kb/s
  143. Count of elements                        : 1380
  144. Stream size                              : 10.6 MiB (0%)
  145. Title                                    : sup
  146. Language                                 : Swedish
  147. Default                                  : No
  148. Forced                                   : No
  149. Menu
  150. 00:00:00.000                             : Chapter 1
  151. 00:20:06.000                             : Chapter 2
  152. 00:40:37.000                             : Chapter 3
  153. 00:59:04.000                             : Chapter 4
  154. 01:16:40.000                             : Chapter 5
  155. 01:33:02.000                             : Chapter 6
复制代码




                                       
                                       

                                       
                                       
                                       




回复

使用道具 举报

懒得打字嘛,点击右侧快捷回复 【右侧内容,后台自定义】
您需要登录后才可以回帖 登录 | 立即加入

本版积分规则

Archiver|小黑屋| 蓝光电影网 |网站地图

Copyright © 2021 Comsenz Inc. Powered by 蓝光电影网

蓝光电影网

本站内容由用户自主分享和转载自互联网,转载目的在于传递更多信息,并不代表本网赞同其观点和对其真实性负责。

如有侵权、违反国家法律政策行为,请联系我们,我们会第一时间及时清除和处理!

举报反馈邮箱:[email protected]

快速回复 返回顶部 返回列表