找回密码

蓝光电影网

查看: 6|回复: 0

[科幻] 恐怖之血 Blood.Of.Ghastly.Horror.1967.1080p.BluRay.x264-HANDJOB 7.44GB

[复制链接]
蓝光币
382
发表于 2020-11-22 21:53:11 | 显示全部楼层 |阅读模式


◎译  名 可骇之血
◎片  名 Blood of Ghastly Horror
◎年  代 1972
◎产  地 美国
◎类  别 科幻 / 可骇
◎语  言 英语
◎上映日期 2001-10-28
◎IMDb评分  2.7/10 from 541 users
◎IMDb链接  https://www.imdb.com/title/tt0068291/
◎豆瓣评分 /10 from 0 users
◎豆瓣链接 https://movie.douban.com/subject/2977198/
◎片  长 87 分钟
◎导  演 阿尔·亚当森 Al Adamson
◎编  剧 Dick Poston / Samuel M. Sherman / 阿尔·亚当森 Al Adamson
◎主  演 约翰·卡拉丁 John Carradine
       肯特·泰勒 Kent Taylor
       汤米·柯克 Tommy Kirk
       Regina Carrol
       Tacey Robbins
◎标  签 可骇
◎简  介


  Al Adamson, shameless purveyor of countless horror anti-classics, juggles around most of the footage from his 1965 clunker Psycho-A-Go-Go after dressing up and re-releasing it on no less than three prior occasions (under a wide assortment of titles -- see below) with a few incomprehensible subplots added to further confuse audiences into thinking they were watching something else. The initial premise involves an insane Vietnam veteran being fitted with a brain implant by mad medic John Carradine (a regular Adamson player by this point) and used as a remote-control zombie by a cabal of jewel thieves. Their pet maniac subsequently blows a gasket, breaks his programming and turns on his controllers, strangles some dancing girls, then gets his revenge on Carradine. Enter gratuitous subplot #1 as the electro-fiend heads straight for Lake Tahoe (can you blame him?), where his rampage continues until he is eventually killed by the cops. Splice in gratuitous subplot #2: The late psycho's embittered pop is also a monster-making mad scientist, who avenges his son's death by mutilating Carradine's buxom daughter. None of the aforementioned plot combinations can disguise Adamson's trademark style -- i.e. cheap gore, cardboard sets, hideous acting, and so on. Viewers who manage to make sense of this piecework monstrosity should switch off their VCRs and seek immediate professional help. Sundry title variations include The Man with the Synthetic Brain, The Fiend with the Atomic Brain, The Fiend with the Electronic Brain, The Fiend with the Synthetic Brain... you should begin to notice a vague pattern here. ~ Cavett Binion, All Movie Guide
  1. Video
  2. ID                                       : 1
  3. Format                                   : AVC
  4. Format/Info                              : Advanced Video Codec
  5. Format profile                           : [email protected]
  6. Format settings                          : CABAC / 5 Ref Frames
  7. Format settings, CABAC                   : Yes
  8. Format settings, Reference frames        : 5 frames
  9. Codec ID                                 : V_MPEG4/ISO/AVC
  10. Duration                                 : 1 h 25 min
  11. Bit rate                                 : 11.8 Mb/s
  12. Width                                    : 1 920 pixels
  13. Height                                   : 816 pixels
  14. Display aspect ratio                     : 2.35:1
  15. Frame rate mode                          : Constant
  16. Frame rate                               : 23.976 (24000/1001/189150) FPS
  17. Color space                              : YUV
  18. Chroma subsampling                       : 4:2:0
  19. Bit depth                                : 8 bits
  20. Scan type                                : Progressive
  21. Bits/(Pixel*Frame)                       : 0.315
  22. Stream size                              : 7.05 GiB (95%)
  23. Writing library                          : x264 core 157 r2935 545de2f
  24. Encoding settings                        : cabac=1 / ref=5 / deblock=1:-3:-3 / analyse=0x3:0x133 / me=umh / subme=10 / psy=1 / psy_rd=1.00:0.00 / mixed_ref=1 / me_range=32 / chroma_me=1 / trellis=2 / 8x8dct=1 / cqm=0 / deadzone=21,11 / fast_pskip=0 / chroma_qp_offset=-2 / threads=6 / lookahead_threads=1 / sliced_threads=0 / nr=0 / decimate=0 / interlaced=0 / bluray_compat=0 / constrained_intra=0 / bframes=16 / b_pyramid=2 / b_adapt=2 / b_bias=0 / direct=3 / weightb=1 / open_gop=0 / weightp=2 / keyint=240 / keyint_min=24 / scenecut=40 / intra_refresh=0 / rc_lookahead=60 / rc=crf / mbtree=0 / crf=20.8 / qcomp=0.60 / qpmin=0 / qpmax=69 / qpstep=4 / vbv_maxrate=62500 / vbv_bufsize=78125 / crf_max=0.0 / nal_hrd=none / filler=0 / ip_ratio=1.40 / pb_ratio=1.30 / aq=2:1.00
  25. Default                                  : Yes
  26. Forced                                   : No
  27. Color range                              : Limited
  28. Color primaries                          : BT.709
  29. Transfer characteristics                 : BT.709
  30. Matrix coefficients                      : BT.709
  31. Audio #1
  32. ID                                       : 2
  33. Format                                   : FLAC
  34. Format/Info                              : Free Lossless Audio Codec
  35. Codec ID                                 : A_FLAC
  36. Duration                                 : 1 h 25 min
  37. Bit rate mode                            : Variable
  38. Bit rate                                 : 586 kb/s
  39. Channel(s)                               : 2 channels
  40. Channel layout                           : L R
  41. Sampling rate                            : 48.0 kHz
  42. Frame rate                               : 11.719 FPS (4096 SPF)
  43. Bit depth                                : 16 bits
  44. Compression mode                         : Lossless
  45. Stream size                              : 358 MiB (5%)
  46. Writing library                          : libFLAC 1.2.1 (UTC 2007-09-17)
  47. Language                                 : English
  48. Default                                  : Yes
  49. Forced                                   : No
  50. Audio #2
  51. ID                                       : 3
  52. Format                                   : AAC LC
  53. Format/Info                              : Advanced Audio Codec Low Complexity
  54. Codec ID                                 : A_AAC-2
  55. Duration                                 : 1 h 25 min
  56. Bit rate                                 : 68.5 kb/s
  57. Channel(s)                               : 2 channels
  58. Channel layout                           : L R
  59. Sampling rate                            : 48.0 kHz
  60. Frame rate                               : 46.875 FPS (1024 SPF)
  61. Compression mode                         : Lossy
  62. Stream size                              : 41.8 MiB (1%)
  63. Title                                    : Commentary wtih Producer/Distributor Samuel M. Sherman
  64. Language                                 : English
  65. Default                                  : No
  66. Forced                                   : No
  67. Text
  68. ID                                       : 4
  69. Format                                   : UTF-8
  70. Codec ID                                 : S_TEXT/UTF8
  71. Codec ID/Info                            : UTF-8 Plain Text
  72. Duration                                 : 1 h 19 min
  73. Bit rate                                 : 37 b/s
  74. Count of elements                        : 702
  75. Stream size                              : 21.5 KiB (0%)
  76. Language                                 : English
  77. Default                                  : No
  78. Forced                                   : No
  79. Menu
  80. 00:00:00.000                             : :Chapter 01
  81. 00:02:00.203                             : :Chapter 02
  82. 00:20:36.652                             : :Chapter 03
  83. 00:42:57.825                             : :Chapter 04
  84. 01:06:28.902                             : :Chapter 05
  85. 01:24:45.998                             : :Chapter 06
复制代码






                                       
                                       

                                       
                                       
                                       




回复

使用道具 举报

懒得打字嘛,点击右侧快捷回复 【右侧内容,后台自定义】
您需要登录后才可以回帖 登录 | 立即加入

本版积分规则

Archiver|小黑屋| 蓝光电影网 |网站地图

Copyright © 2021 Comsenz Inc. Powered by 蓝光电影网

蓝光电影网

本站内容由用户自主分享和转载自互联网,转载目的在于传递更多信息,并不代表本网赞同其观点和对其真实性负责。

如有侵权、违反国家法律政策行为,请联系我们,我们会第一时间及时清除和处理!

举报反馈邮箱:[email protected]

快速回复 返回顶部 返回列表