找回密码

蓝光电影网

查看: 15|回复: 0

[动作] 外星罪孽/宇宙罪孽 Cosmic.Sin.2021.1080p.BluRay.x264-FREEMAN 7.89GB

[复制链接]
蓝光币
382
发表于 2021-5-21 20:54:07 | 显示全部楼层 |阅读模式
[img][/img]

◎译  名 外星罪孽/宇宙罪孽/终极异噬界(台)
◎片  名 Cosmic Sin
◎年  代 2021
◎产  地 美国
◎类  别 行动 / 科幻 / 冒险
◎语  言 英语
◎上映日期 2021-03-01(英国收集) / 2021-03-12(美国收集)
◎豆瓣评分 3.2/10 from 677 users
◎豆瓣链接 https://movie.douban.com/subject/34967032/
◎片  长 88分钟
◎导  演 爱德华·德雷克 Edward Drake
◎编  剧 爱德华·德雷克 Edward Drake / 科里·拉奇 Corey Large
◎主  演 弗兰克·格里罗 Frank Grillo
       布鲁斯·威利斯 Bruce Willis
       布兰登·托马斯·李 Brandon Thomas Lee
       科里·拉奇 Corey Large
       C.J. Perry
       佩瑞·里维斯 Perrey Reeves
       洛奇林·莫罗 Lochlyn Munro
       科斯塔斯·曼迪勒 Costas Mandylor
       艾娃·德·多米尼奇 Eva De Dominici
       阿黛莱德·凯恩 Adelaide Kane
       特雷弗·格雷茨基 Trevor Gretzky
       约翰尼·梅辛纳 Johnny Messner
       卢克·威尔逊 Luke Wilson
◎标  签 科幻 | 布鲁斯·威利斯 | 美国 | 2021 | 行动 | 美国电影 | 冒险 | 电影
◎简  介


  布鲁斯·威利斯将主演科幻题材影片[外星罪孽](Cosmic Sin,暂译)。科里·拉奇、Edward Drake结合执导并配合操刀剧本。该片报告具有传染并控制人类才能的外星物种入侵地球,一群战士与科学家必须自告奋勇,为了人类而战役。
  1. Video
  2. ID                                       : 1
  3. Format                                   : AVC
  4. Format/Info                              : Advanced Video Codec
  5. Format profile                           : [email protected]
  6. Format settings                          : CABAC / 5 Ref Frames
  7. Format settings, CABAC                   : Yes
  8. Format settings, Reference frames        : 5 frames
  9. Codec ID                                 : V_MPEG4/ISO/AVC
  10. Duration                                 : 1 h 28 min
  11. Bit rate                                 : 10.2 Mb/s
  12. Width                                    : 1 920 pixels
  13. Height                                   : 806 pixels
  14. Display aspect ratio                     : 2.40:1
  15. Frame rate mode                          : Constant
  16. Frame rate                               : 23.976 (24000/1001/189150) FPS
  17. Color space                              : YUV
  18. Chroma subsampling                       : 4:2:0
  19. Bit depth                                : 8 bits
  20. Scan type                                : Progressive
  21. Bits/(Pixel*Frame)                       : 0.275
  22. Stream size                              : 6.28 GiB (80%)
  23. Writing library                          : x264 core 163 r3059 b684ebe
  24. Encoding settings                        : cabac=1 / ref=5 / deblock=1:-3:-3 / analyse=0x3:0x133 / me=umh / subme=9 / psy=1 / psy_rd=1.00:0.00 / mixed_ref=1 / me_range=16 / chroma_me=1 / trellis=2 / 8x8dct=1 / cqm=0 / deadzone=21,11 / fast_pskip=1 / chroma_qp_offset=-2 / threads=18 / lookahead_threads=1 / sliced_threads=0 / nr=0 / decimate=1 / interlaced=0 / bluray_compat=0 / constrained_intra=0 / bframes=3 / b_pyramid=2 / b_adapt=2 / b_bias=0 / direct=3 / weightb=1 / open_gop=0 / weightp=2 / keyint=250 / keyint_min=23 / scenecut=40 / intra_refresh=0 / rc_lookahead=60 / rc=crf / mbtree=1 / crf=17.0 / qcomp=0.60 / qpmin=0 / qpmax=69 / qpstep=4 / ip_ratio=1.40 / aq=3:0.80
  25. Language                                 : English
  26. Default                                  : Yes
  27. Forced                                   : No
  28. Color range                              : Limited
  29. Matrix coefficients                      : BT.709

  30. Audio
  31. ID                                       : 2
  32. Format                                   : DTS XLL
  33. Format/Info                              : Digital Theater Systems
  34. Commercial name                          : DTS-HD Master Audio
  35. Codec ID                                 : A_DTS
  36. Duration                                 : 1 h 28 min
  37. Bit rate mode                            : Variable
  38. Bit rate                                 : 2 599 kb/s
  39. Channel(s)                               : 6 channels
  40. Channel layout                           : C L R Ls Rs LFE
  41. Sampling rate                            : 48.0 kHz
  42. Frame rate                               : 93.750 FPS (512 SPF)
  43. Bit depth                                : 24 bits
  44. Compression mode                         : Lossless
  45. Stream size                              : 1.60 GiB (20%)
  46. Title                                    : dtshd
  47. Language                                 : English
  48. Default                                  : Yes
  49. Forced                                   : No

  50. Text
  51. ID                                       : 3
  52. Format                                   : PGS
  53. Muxing mode                              : zlib
  54. Codec ID                                 : S_HDMV/PGS
  55. Codec ID/Info                            : Picture based subtitle format used on BDs/HD-DVDs
  56. Duration                                 : 1 h 24 min
  57. Bit rate                                 : 15.4 kb/s
  58. Count of elements                        : 1418
  59. Stream size                              : 9.32 MiB (0%)
  60. Title                                    : sub
  61. Language                                 : German
  62. Default                                  : No
  63. Forced                                   : No

  64. Menu
  65. 00:00:00.000                             : en:00:00:00.000
  66. 00:07:28.698                             : en:00:07:28.698
  67. 00:14:01.507                             : en:00:14:01.507
  68. 00:19:38.010                             : en:00:19:38.010
  69. 00:29:02.908                             : en:00:29:02.908
  70. 00:35:38.511                             : en:00:35:38.511
  71. 00:41:59.892                             : en:00:41:59.892
  72. 00:50:04.877                             : en:00:50:04.877
  73. 00:57:09.551                             : en:00:57:09.551
  74. 01:04:17.187                             : en:01:04:17.187
  75. 01:09:38.758                             : en:01:09:38.758
  76. 01:16:40.304                             : en:01:16:40.304
  77. 01:25:28.749                             : en:01:25:28.749
复制代码




                                       
                                       

                                       
                                       
                                       




回复

使用道具 举报

懒得打字嘛,点击右侧快捷回复 【右侧内容,后台自定义】
您需要登录后才可以回帖 登录 | 立即加入

本版积分规则

Archiver|小黑屋| 蓝光电影网 |网站地图

Copyright © 2021 Comsenz Inc. Powered by 蓝光电影网

蓝光电影网

本站内容由用户自主分享和转载自互联网,转载目的在于传递更多信息,并不代表本网赞同其观点和对其真实性负责。

如有侵权、违反国家法律政策行为,请联系我们,我们会第一时间及时清除和处理!

举报反馈邮箱:[email protected]

快速回复 返回顶部 返回列表