找回密码

蓝光电影网

查看: 39|回复: 0

[动作] 弹窗惊魂/云端仇人 Open.Windows.2014.720p.BluRay.x264-SPECTRES 4.37GB

[复制链接]
蓝光币
426
发表于 2020-9-20 19:43:48 | 显示全部楼层 |阅读模式


◎译  名 弹窗惊魂/云端仇人(台)/开启的窗口(台)
◎片  名 Open Windows
◎年  代 2014
◎产  地 法国,西班牙,美国
◎类  别 行动 / 惊悚 / 犯罪
◎语  言 英语,西班牙语
◎上映日期 2014-07-04(西班牙)
◎IMDb评分  5.2/10 from 13436 users
◎IMDb链接  https://www.imdb.com/title/tt2409818/
◎豆瓣评分 6.2/10 from 2319 users
◎豆瓣链接 https://movie.douban.com/subject/19974285/
◎片  长 100分钟
◎导  演 那奇欧·维加隆多 Nacho Vigalondo
◎编  剧 那奇欧·维加隆多 Nacho Vigalondo
◎主  演 伊利亚·伍德 Elijah Wood
       萨莎·格蕾 Sasha Grey
       尼尔·马斯克尔 Neil Maskell
       米歇尔·珍娜 Michelle Jenner
       胡里安·毕亚格兰 Julián Villagrán
       卡洛斯·阿雷塞斯 Carlos Areces
       劳尔·西马斯 Raúl Cimas
       Miguel Noguera
       那奇欧·维加隆多 Nacho Vigalondo
       Richard Diment
       尤金尼奥·米拉 Eugenio Mira
       崔凡特·罗兹 Trevante Rhodes
       Mike McCutchen
       丹尼尔·佩雷兹·普拉达 Daniel Pérez Prada
       Rachel Arieff
       海梅·奥利亚斯 Jaime Olías
       伊凡·冈萨雷斯 Iván González
◎标  签 悬疑 | 惊悚 | 犯罪 | 西班牙 | 美国 | 黑客 | 法国 | 行动
◎简  介


  萨拉·格雷在片中饰演一位女演员,遭到了好人的绑架(尼尔·马斯克尔),而伊利亚·伍德饰演的脚色试图经过她在收集上遗留下来的痕迹,来找到她并救出她。影片的出格之处在于其全数镜头都是经过电脑摄像头、手机摄像头、监视器等现实生活中处处可见的视频工具拍摄而成。
◎获奖情况
  第29届西班牙戈雅奖 ?(2015)
  最好殊效(提名) DavidHeras?/?劳尔·罗曼尼洛斯
  1. Video
  2. ID                                       : 1
  3. Format                                   : AVC
  4. Format/Info                              : Advanced Video Codec
  5. Format profile                           : [email protected]
  6. Format settings                          : CABAC / 5 Ref Frames
  7. Format settings, CABAC                   : Yes
  8. Format settings, Reference frames        : 5 frames
  9. Codec ID                                 : V_MPEG4/ISO/AVC
  10. Duration                                 : 1 h 40 min
  11. Bit rate                                 : 4 715 kb/s
  12. Width                                    : 1 280 pixels
  13. Height                                   : 720 pixels
  14. Display aspect ratio                     : 16:9
  15. Frame rate mode                          : Constant
  16. Frame rate                               : 24.000 FPS
  17. Color space                              : YUV
  18. Chroma subsampling                       : 4:2:0
  19. Bit depth                                : 8 bits
  20. Scan type                                : Progressive
  21. Bits/(Pixel*Frame)                       : 0.213
  22. Stream size                              : 3.23 GiB (74%)
  23. Writing library                          : x264 core 144 r2525 40bb568
  24. Encoding settings                        : cabac=1 / ref=5 / deblock=1:0:0 / analyse=0x3:0x133 / me=umh / subme=7 / psy=1 / psy_rd=1.00:0.00 / mixed_ref=1 / me_range=16 / chroma_me=1 / trellis=1 / 8x8dct=1 / cqm=0 / deadzone=21,11 / fast_pskip=0 / chroma_qp_offset=-2 / threads=12 / lookahead_threads=2 / sliced_threads=0 / nr=0 / decimate=1 / interlaced=0 / bluray_compat=0 / constrained_intra=0 / bframes=3 / b_pyramid=2 / b_adapt=2 / b_bias=0 / direct=3 / weightb=1 / open_gop=0 / weightp=2 / keyint=250 / keyint_min=24 / scenecut=40 / intra_refresh=0 / rc_lookahead=50 / rc=2pass / mbtree=1 / bitrate=4715 / ratetol=1.0 / qcomp=0.60 / qpmin=0 / qpmax=69 / qpstep=4 / cplxblur=20.0 / qblur=0.5 / ip_ratio=1.40 / aq=1:1.00
  25. Default                                  : Yes
  26. Forced                                   : No
  27. Audio
  28. ID                                       : 2
  29. Format                                   : DTS
  30. Format/Info                              : Digital Theater Systems
  31. Codec ID                                 : A_DTS
  32. Duration                                 : 1 h 40 min
  33. Bit rate mode                            : Constant
  34. Bit rate                                 : 1 509 kb/s
  35. Channel(s)                               : 6 channels
  36. Channel layout                           : C L R Ls Rs LFE
  37. Sampling rate                            : 48.0 kHz
  38. Frame rate                               : 93.750 FPS (512 SPF)
  39. Bit depth                                : 24 bits
  40. Compression mode                         : Lossy
  41. Stream size                              : 1.06 GiB (24%)
  42. Default                                  : Yes
  43. Forced                                   : No
  44. Menu
  45. 00:00:00.000                             : en:00:00:00.000
  46. 00:06:00.333                             : en:00:06:00.333
  47. 00:12:23.333                             : en:00:12:23.333
  48. 00:18:00.875                             : en:00:18:00.875
  49. 00:23:58.750                             : en:00:23:58.750
  50. 00:29:52.750                             : en:00:29:52.750
  51. 00:36:10.583                             : en:00:36:10.583
  52. 00:42:08.375                             : en:00:42:08.375
  53. 00:48:03.250                             : en:00:48:03.250
  54. 00:53:58.042                             : en:00:53:58.042
  55. 01:01:08.125                             : en:01:01:08.125
  56. 01:08:08.875                             : en:01:08:08.875
  57. 01:14:55.708                             : en:01:14:55.708
  58. 01:21:44.875                             : en:01:21:44.875
  59. 01:28:25.708                             : en:01:28:25.708
  60. 01:36:28.667                             : en:01:36:28.667
复制代码






                                       
                                       

                                       
                                       
                                       




回复

使用道具 举报

懒得打字嘛,点击右侧快捷回复 【右侧内容,后台自定义】
您需要登录后才可以回帖 登录 | 立即加入

本版积分规则

Archiver|小黑屋| 蓝光电影网 |网站地图

Copyright © 2021 Comsenz Inc. Powered by 蓝光电影网

蓝光电影网

本站内容由用户自主分享和转载自互联网,转载目的在于传递更多信息,并不代表本网赞同其观点和对其真实性负责。

如有侵权、违反国家法律政策行为,请联系我们,我们会第一时间及时清除和处理!

举报反馈邮箱:[email protected]

快速回复 返回顶部 返回列表