找回密码

蓝光电影网

查看: 12|回复: 0

[恐怖] 地狱通话 The.Call.2020.1080p.BluRay.x264.DTS-MT 9.33GB

[复制链接]
蓝光币
382
发表于 2020-12-14 09:32:36 | 显示全部楼层 |阅读模式
[img][/img]

◎译  名 天堂通话
◎片  名 The Call
◎年  代 2020
◎产  地 美国
◎类  别 可骇
◎语  言 英语
◎上映日期 2020-10-02(美国)
◎IMDb评分  4.5/10 from 1803 users
◎IMDb链接  https://www.imdb.com/title/tt12971924/
◎豆瓣评分 4.6/10 from 428 users
◎豆瓣链接 https://movie.douban.com/subject/35208347/
◎片  长 95分钟
◎导  演 蒂莫西·伍德沃 Timothy Woodward Jr.
◎编  剧 帕特里克·斯蒂布斯 Patrick Stibbs
◎主  演 林·沙烨 Lin Shaye
       托宾·贝尔 Tobin Bell
       切斯特拉什 ·拉什 Chester Rushing
       艾琳·桑德斯 Erin Sanders
       迈克·C·曼宁 Mike C. Manning
       斯隆·摩根·西格尔 Sloane Morgan Siegel
       贾德·罗德曼 Judd Lormand
       兰迪·J·古德温 Randy J. Goodwin
       托比·利德 Toby Leeder
       艾丹·伯托拉 Aidan Bertola
       马德琳·韦德 Madeleine Wade
       席亚拉·汉娜 Ciara Hanna
       兰迪·查奇 Randy Charach
       夏洛特·霍顿 Charlotte Horton
       Fred Stoller
       Thiago Torres de Oliveira
◎标  签 可骇 | 美国 | 惊悚 | 2020 | 美国电影 | 美国可骇 | 美国惊悚 | 灵异
◎简  介


  故事描写一群朋友凌虐林·沙烨饰演的脚色,思疑她是女巫。当林·沙烨饰演的脚色灭亡后,她的老公(托宾·贝尔 TobinBell 饰)逼迫这群人打电话给他已过世的妻子。他们播打电话,而且电话另一头有人接起,一场青少年的恶作剧敏捷转酿成一场可怕的噩梦。这四名好朋友堕入了天堂通话的天下。
  1. Video
  2. ID                                       : 1
  3. Format                                   : AVC
  4. Format/Info                              : Advanced Video Codec
  5. Format profile                           : [email protected]
  6. Format settings                          : CABAC / 5 Ref Frames
  7. Format settings, CABAC                   : Yes
  8. Format settings, Reference frames        : 5 frames
  9. Codec ID                                 : V_MPEG4/ISO/AVC
  10. Duration                                 : 1 h 37 min
  11. Bit rate                                 : 12.2 Mb/s
  12. Width                                    : 1 920 pixels
  13. Height                                   : 804 pixels
  14. Display aspect ratio                     : 2.40:1
  15. Frame rate mode                          : Constant
  16. Frame rate                               : 23.976 (24000/1001/189150) FPS
  17. Color space                              : YUV
  18. Chroma subsampling                       : 4:2:0
  19. Bit depth                                : 8 bits
  20. Scan type                                : Progressive
  21. Bits/(Pixel*Frame)                       : 0.330
  22. Stream size                              : 8.31 GiB (89%)
  23. Writing library                          : x264 core 157 r2938 2b00a84 [email protected] Mod
  24. Encoding settings                        : cabac=1 / ref=5 / deblock=1:-3:-3 / analyse=0x3:0x133 / me=umh / subme=10 / psy=1 / psy_rd=1.05:0.00 / mixed_ref=1 / me_range=32 / chroma_me=1 / trellis=2 / 8x8dct=1 / cqm=0 / deadzone=21,11 / fast_pskip=0 / chroma_qp_offset=-2 / threads=12 / lookahead_threads=2 / sliced_threads=0 / nr=0 / decimate=0 / interlaced=0 / bluray_compat=0 / constrained_intra=0 / bframes=8 / b_pyramid=2 / b_adapt=2 / b_bias=0 / direct=3 / weightb=1 / open_gop=0 / weightp=2 / keyint=250 / keyint_min=24 / scenecut=40 / intra_refresh=0 / rc_lookahead=250 / rc=crf / mbtree=0 / crf=16.8 / qcomp=0.60 / qpmin=0 / qpmax=69 / qpstep=4 / vbv_maxrate=62500 / vbv_bufsize=78125 / crf_max=0.0 / nal_hrd=none / filler=0 / ip_ratio=1.30 / pb_ratio=1.20 / aq=3:0.80
  25. Language                                 : English
  26. Default                                  : Yes
  27. Forced                                   : No
  28. Color range                              : Limited
  29. Color primaries                          : BT.709
  30. Matrix coefficients                      : BT.709
  31. Audio
  32. ID                                       : 2
  33. Format                                   : DTS
  34. Format/Info                              : Digital Theater Systems
  35. Codec ID                                 : A_DTS
  36. Duration                                 : 1 h 37 min
  37. Bit rate mode                            : Constant
  38. Bit rate                                 : 1 509 kb/s
  39. Channel(s)                               : 6 channels
  40. Channel layout                           : C L R Ls Rs LFE
  41. Sampling rate                            : 48.0 kHz
  42. Frame rate                               : 93.750 FPS (512 SPF)
  43. Bit depth                                : 24 bits
  44. Compression mode                         : Lossy
  45. Stream size                              : 1.03 GiB (11%)
  46. Language                                 : English
  47. Default                                  : Yes
  48. Forced                                   : No
  49. Text
  50. ID                                       : 3
  51. Format                                   : UTF-8
  52. Codec ID                                 : S_TEXT/UTF8
  53. Codec ID/Info                            : UTF-8 Plain Text
  54. Duration                                 : 1 h 29 min
  55. Bit rate                                 : 30 b/s
  56. Count of elements                        : 884
  57. Stream size                              : 19.8 KiB (0%)
  58. Title                                    : SRT
  59. Language                                 : English
  60. Default                                  : Yes
  61. Forced                                   : No
  62. Menu
  63. 00:00:00.000                             : en:Chapter 01
  64. 00:15:05.530                             : en:Chapter 02
  65. 00:27:19.596                             : en:Chapter 03
  66. 00:44:04.100                             : en:Chapter 04
  67. 01:03:38.565                             : en:Chapter 05
  68. 01:14:02.813                             : en:Chapter 06
  69. 01:17:26.016                             : en:Chapter 07
  70. 01:31:33.655                             : en:Chapter 08
复制代码



                                       
                                       

                                       
                                       
                                       




回复

使用道具 举报

懒得打字嘛,点击右侧快捷回复 【右侧内容,后台自定义】
您需要登录后才可以回帖 登录 | 立即加入

本版积分规则

Archiver|小黑屋| 蓝光电影网 |网站地图

Copyright © 2021 Comsenz Inc. Powered by 蓝光电影网

蓝光电影网

本站内容由用户自主分享和转载自互联网,转载目的在于传递更多信息,并不代表本网赞同其观点和对其真实性负责。

如有侵权、违反国家法律政策行为,请联系我们,我们会第一时间及时清除和处理!

举报反馈邮箱:[email protected]

快速回复 返回顶部 返回列表