找回密码

蓝光电影网

查看: 8|回复: 0

[惊悚] 捕梦魔/捕魔网 Dreamkatcher.2020.720p.BluRay.x264.DTS-NOGRP 4.13GB

[复制链接]
蓝光币
382
发表于 2021-1-26 09:37:46 | 显示全部楼层 |阅读模式
[img][/img]

◎译  名 捕梦魔/捕魔网(台)
◎片  名 Dreamkatcher
◎年  代 2020
◎产  地 美国
◎类  别 惊悚 / 可骇
◎语  言 英语
◎上映日期 2020-04-28(美国)
◎IMDb评分  3.7/10 from 1443 users
◎IMDb链接  https://www.imdb.com/title/tt10553210/
◎豆瓣评分 3.8/10 from 249 users
◎豆瓣链接 https://movie.douban.com/subject/34805798/
◎片  长 85分钟
◎主  演 拉达·米切尔 Radha Mitchell
       亨利·托马斯 Henry Thomas
       林·沙烨 Lin Shaye
       约瑟夫·比沙拉 Joseph Bishara
◎标  签 可骇 | 美国 | 2020 | 惊悚 | 灵异 | 梦魔 | 可骇片 | 美国电影
◎简  介


  为了阻止他的噩梦,一个小男孩从一个奥秘的邻人那边偷走了一个追梦者,迫使他的家人把他从噩梦中救出来。
  1. Video
  2. ID                                       : 1
  3. Format                                   : AVC
  4. Format/Info                              : Advanced Video Codec
  5. Format profile                           : [email protected]
  6. Format settings                          : CABAC / 9 Ref Frames
  7. Format settings, CABAC                   : Yes
  8. Format settings, Reference frames        : 9 frames
  9. Codec ID                                 : V_MPEG4/ISO/AVC
  10. Duration                                 : 1 h 25 min
  11. Bit rate                                 : 5 416 kb/s
  12. Width                                    : 1 280 pixels
  13. Height                                   : 720 pixels
  14. Display aspect ratio                     : 16:9
  15. Frame rate mode                          : Constant
  16. Frame rate                               : 23.976 (24000/1001/189150) FPS
  17. Color space                              : YUV
  18. Chroma subsampling                       : 4:2:0
  19. Bit depth                                : 8 bits
  20. Scan type                                : Progressive
  21. Bits/(Pixel*Frame)                       : 0.245
  22. Stream size                              : 3.23 GiB (78%)
  23. Writing library                          : x264 core 160 r3000 33f9e14
  24. Encoding settings                        : cabac=1 / ref=9 / deblock=1:-3:-3 / analyse=0x3:0x133 / me=umh / subme=11 / psy=1 / psy_rd=1.02:0.00 / mixed_ref=1 / me_range=32 / chroma_me=1 / trellis=2 / 8x8dct=1 / cqm=0 / deadzone=21,11 / fast_pskip=0 / chroma_qp_offset=-2 / threads=12 / lookahead_threads=3 / sliced_threads=0 / nr=0 / decimate=0 / interlaced=0 / bluray_compat=0 / constrained_intra=0 / bframes=16 / b_pyramid=2 / b_adapt=2 / b_bias=0 / direct=3 / weightb=1 / open_gop=0 / weightp=2 / keyint=250 / keyint_min=23 / scenecut=40 / intra_refresh=0 / rc_lookahead=250 / rc=crf / mbtree=0 / crf=17.0 / qcomp=0.60 / qpmin=0 / qpmax=69 / qpstep=4 / vbv_maxrate=62500 / vbv_bufsize=78125 / crf_max=0.0 / nal_hrd=none / filler=0 / ip_ratio=1.30 / pb_ratio=1.20 / aq=3:0.80
  25. Language                                 : English
  26. Default                                  : Yes
  27. Forced                                   : No
  28. Color range                              : Limited
  29. Color primaries                          : BT.709
  30. Matrix coefficients                      : BT.709
  31. Audio
  32. ID                                       : 2
  33. Format                                   : DTS
  34. Format/Info                              : Digital Theater Systems
  35. Codec ID                                 : A_DTS
  36. Duration                                 : 1 h 25 min
  37. Bit rate mode                            : Constant
  38. Bit rate                                 : 1 509 kb/s
  39. Channel(s)                               : 6 channels
  40. Channel layout                           : C L R Ls Rs LFE
  41. Sampling rate                            : 48.0 kHz
  42. Frame rate                               : 93.750 FPS (512 SPF)
  43. Bit depth                                : 24 bits
  44. Compression mode                         : Lossy
  45. Stream size                              : 921 MiB (22%)
  46. Language                                 : English
  47. Default                                  : Yes
  48. Forced                                   : No
  49. Text #1
  50. ID                                       : 3
  51. Format                                   : UTF-8
  52. Codec ID                                 : S_TEXT/UTF8
  53. Codec ID/Info                            : UTF-8 Plain Text
  54. Duration                                 : 1 h 11 min
  55. Bit rate                                 : 41 b/s
  56. Count of elements                        : 747
  57. Stream size                              : 21.8 KiB (0%)
  58. Language                                 : English
  59. Default                                  : Yes
  60. Forced                                   : No
  61. Text #2
  62. ID                                       : 4
  63. Format                                   : UTF-8
  64. Codec ID                                 : S_TEXT/UTF8
  65. Codec ID/Info                            : UTF-8 Plain Text
  66. Duration                                 : 1 h 17 min
  67. Bit rate                                 : 43 b/s
  68. Count of elements                        : 856
  69. Stream size                              : 24.3 KiB (0%)
  70. Title                                    : SDH
  71. Language                                 : English
  72. Default                                  : No
  73. Forced                                   : No
  74. Text #3
  75. ID                                       : 5
  76. Format                                   : UTF-8
  77. Codec ID                                 : S_TEXT/UTF8
  78. Codec ID/Info                            : UTF-8 Plain Text
  79. Duration                                 : 1 h 16 min
  80. Bit rate                                 : 44 b/s
  81. Count of elements                        : 818
  82. Stream size                              : 25.1 KiB (0%)
  83. Language                                 : German
  84. Default                                  : No
  85. Forced                                   : No
  86. Menu
  87. 00:00:00.000                             : en:Chapter 1
  88. 00:05:29.162                             : en:Chapter 2
  89. 00:15:41.691                             : en:Chapter 3
  90. 00:23:36.498                             : en:Chapter 4
  91. 00:30:30.245                             : en:Chapter 5
  92. 00:36:42.784                             : en:Chapter 6
  93. 00:47:01.569                             : en:Chapter 7
  94. 00:55:36.124                             : en:Chapter 8
  95. 01:01:47.746                             : en:Chapter 9
  96. 01:07:00.183                             : en:Chapter 10
  97. 01:14:45.731                             : en:Chapter 11
  98. 01:19:37.856                             : en:Chapter 12
复制代码



                                       
                                       

                                       
                                       
                                       




回复

使用道具 举报

懒得打字嘛,点击右侧快捷回复 【右侧内容,后台自定义】
您需要登录后才可以回帖 登录 | 立即加入

本版积分规则

Archiver|小黑屋| 蓝光电影网 |网站地图

Copyright © 2021 Comsenz Inc. Powered by 蓝光电影网

蓝光电影网

本站内容由用户自主分享和转载自互联网,转载目的在于传递更多信息,并不代表本网赞同其观点和对其真实性负责。

如有侵权、违反国家法律政策行为,请联系我们,我们会第一时间及时清除和处理!

举报反馈邮箱:[email protected]

快速回复 返回顶部 返回列表