找回密码

蓝光电影网

查看: 14|回复: 0

[动作] 讨债人2 The.Debt.Collector.2.2020.720p.BluRay.x264-JustWatch 2.54GB

[复制链接]
蓝光币
426
发表于 2020-9-20 09:59:44 | 显示全部楼层 |阅读模式


◎译  名 索债人2/Debt Collectors
◎片  名 The Debt Collector 2
◎年  代 2020
◎产  地 美国
◎类  别 行动
◎语  言 英语
◎上映日期 2020-05-29(德国)
◎IMDb评分  5.7/10 from 1509 users
◎IMDb链接  https://www.imdb.com/title/tt10933680/
◎豆瓣评分 5.1/10 from 411 users
◎豆瓣链接 https://movie.douban.com/subject/34807442/
◎导  演 杰西·约翰逊 Jesse V. Johnson
◎编  剧 杰西·约翰逊 Jesse V. Johnson / 斯图·斯莫尔 Stu Small
◎主  演 斯科特·阿金斯 Scott Adkins
       路易·曼迪勒 Louis Mandylor
       弗拉基米尔库利奇 Vladimir Kulich
       黄美玲 Mayling Ng
       马里亚诺·门多萨 Mariano Mendoza
◎标  签 行动 | 犯罪 | 斯科特·阿金斯 | 美国 | 2020 | 暴力 | 路易·曼迪勒 | 美国电影
◎简  介


  杰西·约翰逊的故事不但延续了前作这对儿倒霉索债组合的故事,还为他们的奇迹之路上设备了更多更猛的新障碍。什么小混混,大女人,黑社会大佬……想要账、索债,进程和成果都相当不轻易。除了费口舌费轮胎之外,就是仍然很费拳头和老腰,一路索债一路打来,拳头、腿脚、棍棒甚至冲锋枪都得用上……但越来越“干一行爱一行”的弗兰奇,和始终汗漫不羁的苏,似乎更享用这样生活节奏。
  1. Video
  2. ID                                       : 1
  3. Format                                   : AVC
  4. Format/Info                              : Advanced Video Codec
  5. Format profile                           : [email protected]
  6. Format settings                          : CABAC / 8 Ref Frames
  7. Format settings, CABAC                   : Yes
  8. Format settings, Reference frames        : 8 frames
  9. Codec ID                                 : V_MPEG4/ISO/AVC
  10. Duration                                 : 1 h 37 min
  11. Bit rate                                 : 2 954 kb/s
  12. Width                                    : 1 280 pixels
  13. Height                                   : 536 pixels
  14. Display aspect ratio                     : 2.40:1
  15. Frame rate mode                          : Constant
  16. Frame rate                               : 23.976 (24000/1001/189150) FPS
  17. Color space                              : YUV
  18. Chroma subsampling                       : 4:2:0
  19. Bit depth                                : 8 bits
  20. Scan type                                : Progressive
  21. Bits/(Pixel*Frame)                       : 0.180
  22. Stream size                              : 2.01 GiB (79%)
  23. Writing library                          : x264 core 161 r3018 db0d417
  24. Encoding settings                        : cabac=1 / ref=8 / deblock=1:-3:-3 / analyse=0x3:0x133 / me=umh / subme=9 / psy=1 / psy_rd=1.00:0.00 / mixed_ref=1 / me_range=16 / chroma_me=1 / trellis=2 / 8x8dct=1 / cqm=0 / deadzone=21,11 / fast_pskip=0 / chroma_qp_offset=-2 / threads=17 / lookahead_threads=1 / sliced_threads=0 / nr=0 / decimate=1 / interlaced=0 / bluray_compat=0 / constrained_intra=0 / bframes=3 / b_pyramid=2 / b_adapt=2 / b_bias=0 / direct=3 / weightb=1 / open_gop=0 / weightp=2 / keyint=250 / keyint_min=23 / scenecut=40 / intra_refresh=0 / rc_lookahead=60 / rc=crf / mbtree=1 / crf=17.0 / qcomp=0.60 / qpmin=0 / qpmax=69 / qpstep=4 / ip_ratio=1.40 / aq=1:1.00
  25. Language                                 : English
  26. Default                                  : Yes
  27. Forced                                   : No

  28. Audio #1
  29. ID                                       : 2
  30. Format                                   : AC-3
  31. Format/Info                              : Audio Coding 3
  32. Commercial name                          : Dolby Digital
  33. Codec ID                                 : A_AC3
  34. Duration                                 : 1 h 37 min
  35. Bit rate mode                            : Constant
  36. Bit rate                                 : 640 kb/s
  37. Channel(s)                               : 6 channels
  38. Channel layout                           : L R C LFE Ls Rs
  39. Sampling rate                            : 48.0 kHz
  40. Frame rate                               : 31.250 FPS (1536 SPF)
  41. Compression mode                         : Lossy
  42. Stream size                              : 446 MiB (17%)
  43. Language                                 : English
  44. Service kind                             : Complete Main
  45. Default                                  : Yes
  46. Forced                                   : No

  47. Audio #2
  48. ID                                       : 3
  49. Format                                   : AAC LC
  50. Format/Info                              : Advanced Audio Codec Low Complexity
  51. Codec ID                                 : A_AAC-2
  52. Duration                                 : 1 h 37 min
  53. Bit rate                                 : 122 kb/s
  54. Channel(s)                               : 2 channels
  55. Channel layout                           : L R
  56. Sampling rate                            : 48.0 kHz
  57. Frame rate                               : 46.875 FPS (1024 SPF)
  58. Compression mode                         : Lossy
  59. Delay relative to video                  : 9 ms
  60. Stream size                              : 85.2 MiB (3%)
  61. Title                                    : commentary
  62. Language                                 : English
  63. Default                                  : No
  64. Forced                                   : No

  65. Text
  66. ID                                       : 4
  67. Format                                   : PGS
  68. Muxing mode                              : zlib
  69. Codec ID                                 : S_HDMV/PGS
  70. Codec ID/Info                            : Picture based subtitle format used on BDs/HD-DVDs
  71. Duration                                 : 1 h 30 min
  72. Bit rate                                 : 28.0 kb/s
  73. Count of elements                        : 2477
  74. Stream size                              : 18.2 MiB (1%)
  75. Language                                 : German
  76. Default                                  : No
  77. Forced                                   : No

  78. Menu
  79. 00:00:00.000                             : :Kapitel 01
  80. 00:07:26.279                             : :Kapitel 02
  81. 00:19:40.805                             : :Kapitel 03
  82. 00:29:06.411                             : :Kapitel 04
  83. 00:35:54.069                             : :Kapitel 05
  84. 00:44:08.646                             : :Kapitel 06
  85. 00:49:22.793                             : :Kapitel 07
  86. 00:53:32.709                             : :Kapitel 08
  87. 01:06:05.753                             : :Kapitel 09
  88. 01:17:02.409                             : :Kapitel 10
  89. 01:29:06.466                             : :Kapitel 11
  90. 01:33:40.281                             : :Kapitel 12
复制代码




                                       
                                       

                                       
                                       
                                       




回复

使用道具 举报

懒得打字嘛,点击右侧快捷回复 【右侧内容,后台自定义】
您需要登录后才可以回帖 登录 | 立即加入

本版积分规则

Archiver|小黑屋| 蓝光电影网 |网站地图

Copyright © 2021 Comsenz Inc. Powered by 蓝光电影网

蓝光电影网

本站内容由用户自主分享和转载自互联网,转载目的在于传递更多信息,并不代表本网赞同其观点和对其真实性负责。

如有侵权、违反国家法律政策行为,请联系我们,我们会第一时间及时清除和处理!

举报反馈邮箱:[email protected]

快速回复 返回顶部 返回列表