找回密码

蓝光电影网

查看: 19|回复: 0

[惊悚] 死亡怪圈 Spiral.2019.720p.BluRay.x264-VETO 2.22GB

[复制链接]
蓝光币
426
发表于 2021-1-20 21:33:40 | 显示全部楼层 |阅读模式
[img][/img]

◎译  名 灭亡怪圈
◎片  名 Spiral
◎年  代 2019
◎产  地 加拿大
◎类  别 惊悚
◎语  言 英语
◎上映日期 2019-08-25(英国)
◎IMDb评分  5.6/10 from 2150 users
◎IMDb链接  https://www.imdb.com/title/tt9247314/
◎豆瓣评分 /10 from 0 users
◎豆瓣链接 https://movie.douban.com/subject/34461636/
◎片  长 90分钟(英国)
◎导  演 科提斯·大卫·哈德 Kurtis David Harder
◎编  剧 柯林·米尼汉 Colin Minihan / John Poliquin
◎主  演 杰弗里·鲍耶-查普曼 Jeffrey Bowyer-Chapman
       洛奇林·莫罗 Lochlyn Munro
       钱德拉·韦斯特 Chandra West
       泰·伍德 Ty Wood
       托马斯·埃尔姆斯 Thomas Elms
       亚伦·普尔 Aaron Poole
◎标  签 惊悚 | 可骇惊悚悬疑重口血腥 | 巫术诅咒献祭宗教 | 加拿大电影 | 加拿大 | [歐美] | LGBT | KurtisDavidHarder
◎简  介


  From co-writer and producer Colin Minihan, director of past FrightFest favourites WHAT KEEPS YOU ALIVE and IT STAINS THE SANDS RED, and director Kurtis David Harder, of INCONTROL fame, comes a snappy, smart and scary chiller in the GET OUT tradition. A same-sex couple move to a small town so they can enjoy a better quality of life and raise their 16 year-old daughter with the best social values. But nothing is as it seems in their picturesque neighbourhood. And when Malik sees the folks next door throwing a very strange party, something very shocking has got to give.
  1. Video
  2. ID                                       : 1
  3. Format                                   : AVC
  4. Format/Info                              : Advanced Video Codec
  5. Format profile                           : [email protected]
  6. Format settings                          : CABAC / 8 Ref Frames
  7. Format settings, CABAC                   : Yes
  8. Format settings, Reference frames        : 8 frames
  9. Codec ID                                 : V_MPEG4/ISO/AVC
  10. Duration                                 : 1 h 26 min
  11. Bit rate                                 : 2 991 kb/s
  12. Width                                    : 1 280 pixels
  13. Height                                   : 538 pixels
  14. Display aspect ratio                     : 2.40:1
  15. Frame rate mode                          : Constant
  16. Frame rate                               : 23.976 (24000/1001/189150) FPS
  17. Color space                              : YUV
  18. Chroma subsampling                       : 4:2:0
  19. Bit depth                                : 8 bits
  20. Scan type                                : Progressive
  21. Bits/(Pixel*Frame)                       : 0.181
  22. Stream size                              : 1.82 GiB (82%)
  23. Writing library                          : x264 core 161 r3033 0d754ec
  24. Encoding settings                        : cabac=1 / ref=8 / deblock=1:-3:-3 / analyse=0x3:0x133 / me=umh / subme=9 / psy=1 / psy_rd=1.00:0.00 / mixed_ref=1 / me_range=16 / chroma_me=1 / trellis=2 / 8x8dct=1 / cqm=0 / deadzone=21,11 / fast_pskip=0 / chroma_qp_offset=-2 / threads=24 / lookahead_threads=2 / sliced_threads=0 / nr=0 / decimate=0 / interlaced=0 / bluray_compat=0 / constrained_intra=0 / bframes=3 / b_pyramid=2 / b_adapt=2 / b_bias=0 / direct=3 / weightb=1 / open_gop=0 / weightp=2 / keyint=250 / keyint_min=23 / scenecut=40 / intra_refresh=0 / rc=crf / mbtree=0 / crf=17.0 / qcomp=0.60 / qpmin=0 / qpmax=69 / qpstep=4 / ip_ratio=1.40 / pb_ratio=1.30 / aq=3:0.70
  25. Language                                 : English
  26. Default                                  : Yes
  27. Forced                                   : No
  28. Color range                              : Limited
  29. Matrix coefficients                      : BT.709

  30. Audio
  31. ID                                       : 2
  32. Format                                   : AC-3
  33. Format/Info                              : Audio Coding 3
  34. Commercial name                          : Dolby Digital
  35. Codec ID                                 : A_AC3
  36. Duration                                 : 1 h 26 min
  37. Bit rate mode                            : Constant
  38. Bit rate                                 : 640 kb/s
  39. Channel(s)                               : 6 channels
  40. Channel layout                           : L R C LFE Ls Rs
  41. Sampling rate                            : 48.0 kHz
  42. Frame rate                               : 31.250 FPS (1536 SPF)
  43. Compression mode                         : Lossy
  44. Stream size                              : 398 MiB (18%)
  45. Language                                 : English
  46. Service kind                             : Complete Main
  47. Default                                  : Yes
  48. Forced                                   : No

  49. Text #1
  50. ID                                       : 3
  51. Format                                   : PGS
  52. Muxing mode                              : zlib
  53. Codec ID                                 : S_HDMV/PGS
  54. Codec ID/Info                            : Picture based subtitle format used on BDs/HD-DVDs
  55. Duration                                 : 1 h 26 min
  56. Bit rate                                 : 17.8 kb/s
  57. Count of elements                        : 2170
  58. Stream size                              : 11.0 MiB (0%)
  59. Title                                    : English (SDH)
  60. Language                                 : English
  61. Default                                  : No
  62. Forced                                   : No

  63. Text #2
  64. ID                                       : 4
  65. Format                                   : PGS
  66. Muxing mode                              : zlib
  67. Codec ID                                 : S_HDMV/PGS
  68. Codec ID/Info                            : Picture based subtitle format used on BDs/HD-DVDs
  69. Duration                                 : 1 h 23 min
  70. Bit rate                                 : 16.6 kb/s
  71. Count of elements                        : 1700
  72. Stream size                              : 9.95 MiB (0%)
  73. Title                                    : French
  74. Language                                 : French
  75. Default                                  : No
  76. Forced                                   : No

  77. Text #3
  78. ID                                       : 5
  79. Format                                   : PGS
  80. Muxing mode                              : zlib
  81. Codec ID                                 : S_HDMV/PGS
  82. Codec ID/Info                            : Picture based subtitle format used on BDs/HD-DVDs
  83. Duration                                 : 1 h 23 min
  84. Bit rate                                 : 16.7 kb/s
  85. Count of elements                        : 1756
  86. Stream size                              : 9.96 MiB (0%)
  87. Title                                    : Spanish
  88. Language                                 : Spanish
  89. Default                                  : No
  90. Forced                                   : No

  91. Text #4
  92. ID                                       : 6
  93. Format                                   : UTF-8
  94. Codec ID                                 : S_TEXT/UTF8
  95. Codec ID/Info                            : UTF-8 Plain Text
  96. Duration                                 : 1 h 22 min
  97. Bit rate                                 : 39 b/s
  98. Count of elements                        : 784
  99. Stream size                              : 23.9 KiB (0%)
  100. Title                                    : English (SRT)
  101. Language                                 : English
  102. Default                                  : No
  103. Forced                                   : No

  104. Text #5
  105. ID                                       : 7
  106. Format                                   : UTF-8
  107. Codec ID                                 : S_TEXT/UTF8
  108. Codec ID/Info                            : UTF-8 Plain Text
  109. Duration                                 : 1 h 26 min
  110. Bit rate                                 : 41 b/s
  111. Count of elements                        : 1063
  112. Stream size                              : 26.4 KiB (0%)
  113. Title                                    : English (SDH SRT)
  114. Language                                 : English
  115. Default                                  : No
  116. Forced                                   : No

  117. Menu
  118. 00:00:00.000                             : en:Chapter 01
  119. 00:13:43.656                             : en:Chapter 02
  120. 00:23:30.868                             : en:Chapter 03
  121. 00:36:09.084                             : en:Chapter 04
  122. 00:49:03.232                             : en:Chapter 05
  123. 01:23:39.223                             : en:Chapter 06
复制代码



                                       
                                       

                                       
                                       
                                       




回复

使用道具 举报

懒得打字嘛,点击右侧快捷回复 【右侧内容,后台自定义】
您需要登录后才可以回帖 登录 | 立即加入

本版积分规则

Archiver|小黑屋| 蓝光电影网 |网站地图

Copyright © 2021 Comsenz Inc. Powered by 蓝光电影网

蓝光电影网

本站内容由用户自主分享和转载自互联网,转载目的在于传递更多信息,并不代表本网赞同其观点和对其真实性负责。

如有侵权、违反国家法律政策行为,请联系我们,我们会第一时间及时清除和处理!

举报反馈邮箱:[email protected]

快速回复 返回顶部 返回列表