找回密码

蓝光电影网

查看: 8|回复: 0

[动作] 双面疑云/危险线人 Above.Suspicion.2019.1080p.BluRay.x264-WoAT 13.06GB

[复制链接]
蓝光币
382
发表于 2021-5-20 08:42:27 | 显示全部楼层 |阅读模式
[img][/img]

◎译  名 双面疑云/危险线人(台)/致命疑云
◎片  名 Above Suspicion
◎年  代 2019
◎产  地 美国
◎类  别 行动 / 惊悚 / 犯罪
◎语  言 英语
◎上映日期 2019-07-04(黎巴嫩)
◎豆瓣评分 6.0/10 from 525 users
◎豆瓣链接 https://movie.douban.com/subject/26785800/
◎片  长 98分钟
◎导  演 菲利普·诺伊斯 Phillip Noyce
◎编  剧 克里斯·格罗尔莫 Chris Gerolmo
◎主  演 艾米莉亚·克拉克 Emilia Clarke
       杰克·休斯顿 Jack Huston
       苏菲·洛 Sophie Lowe
       约翰尼·诺克斯维尔 Johnny Knoxville
       奥斯汀·赫伯特 Austin Hébert
       索拉·伯奇 Thora Birch
       卡尔·格洛斯曼 Karl Glusman
       凯文·杜恩 Kevin Dunn
       布瑞恩·李·富兰克林 Brian Lee Franklin
       奥玛·本森·米勒 Omar Benson Miller
       克里斯·马尔基 Chris Mulkey
       布莱特妮·奥格拉迪 Brittany O'Grady
       卢克·斯宾塞·罗伯茨 Luke Spencer Roberts
       约书亚·米克尔 Joshua Mikel
       丹尼尔·R·希尔 Daniel R. Hill
       吉姆·克洛克 Jim Klock
       兰斯·E·尼克尔斯 Lance E. Nichols
       弗兰克·霍伊·泰勒 Frank Hoyt Taylor
       罗伯特·C.特雷维勒 Robert C. Treveiler
       纳撒尼尔·赛兹莫尔 Nathaniel Sizemore
◎标  签 犯罪 | 美国 | 真人真事改编 | 艾米莉亚·克拉克 | 警匪 | 悬疑 | 美国电影 | 人性
◎简  介


  Deadline消息,艾米莉·克拉克、杰克·休斯顿确认加盟菲利普·诺伊斯新片《双面疑云》(Above Suspicion,暂译)。影片故事来历于《纽约时报》专栏作家乔·夏基原著,报告了一位榜样FBI捕快背后的丑闻事务,也是FBI历史上初次为捕快的谋杀行为科罪。
  1. Video
  2. ID                                       : 1
  3. Format                                   : AVC
  4. Format/Info                              : Advanced Video Codec
  5. Format profile                           : [email protected]
  6. Format settings                          : CABAC / 5 Ref Frames
  7. Format settings, CABAC                   : Yes
  8. Format settings, Reference frames        : 5 frames
  9. Codec ID                                 : V_MPEG4/ISO/AVC
  10. Duration                                 : 1 h 44 min
  11. Bit rate                                 : 14.6 Mb/s
  12. Width                                    : 1 920 pixels
  13. Height                                   : 800 pixels
  14. Display aspect ratio                     : 2.40:1
  15. Frame rate mode                          : Constant
  16. Frame rate                               : 24.000 FPS
  17. Color space                              : YUV
  18. Chroma subsampling                       : 4:2:0
  19. Bit depth                                : 8 bits
  20. Scan type                                : Progressive
  21. Bits/(Pixel*Frame)                       : 0.397
  22. Stream size                              : 10.7 GiB (82%)
  23. Writing library                          : x264 core 163 r3059 b684ebe
  24. Encoding settings                        : cabac=1 / ref=5 / deblock=1:-3:-3 / analyse=0x3:0x133 / me=umh / subme=9 / psy=1 / psy_rd=1.00:0.00 / mixed_ref=1 / me_range=32 / chroma_me=1 / trellis=2 / 8x8dct=1 / cqm=0 / deadzone=21,11 / fast_pskip=0 / chroma_qp_offset=-2 / threads=20 / lookahead_threads=3 / sliced_threads=0 / nr=0 / decimate=0 / interlaced=0 / bluray_compat=0 / constrained_intra=0 / bframes=8 / b_pyramid=2 / b_adapt=2 / b_bias=0 / direct=3 / weightb=1 / open_gop=0 / weightp=2 / keyint=250 / keyint_min=24 / scenecut=40 / intra_refresh=0 / rc_lookahead=60 / rc=crf / mbtree=1 / crf=16.0 / qcomp=0.60 / qpmin=0 / qpmax=69 / qpstep=4 / ip_ratio=1.40 / aq=3:0.88
  25. Default                                  : Yes
  26. Forced                                   : No
  27. Color range                              : Limited
  28. Matrix coefficients                      : BT.709

  29. Audio
  30. ID                                       : 2
  31. Format                                   : DTS XLL
  32. Format/Info                              : Digital Theater Systems
  33. Commercial name                          : DTS-HD Master Audio
  34. Codec ID                                 : A_DTS
  35. Duration                                 : 1 h 44 min
  36. Bit rate mode                            : Variable
  37. Bit rate                                 : 3 237 kb/s
  38. Channel(s)                               : 6 channels
  39. Channel layout                           : C L R Ls Rs LFE
  40. Sampling rate                            : 48.0 kHz
  41. Frame rate                               : 93.750 FPS (512 SPF)
  42. Bit depth                                : 24 bits
  43. Compression mode                         : Lossless
  44. Stream size                              : 2.36 GiB (18%)
  45. Title                                    : English
  46. Language                                 : English
  47. Default                                  : No
  48. Forced                                   : No

  49. Text #1
  50. ID                                       : 3
  51. Format                                   : PGS
  52. Muxing mode                              : zlib
  53. Codec ID                                 : S_HDMV/PGS
  54. Codec ID/Info                            : Picture based subtitle format used on BDs/HD-DVDs
  55. Duration                                 : 1 h 42 min
  56. Bit rate                                 : 37.0 kb/s
  57. Count of elements                        : 2616
  58. Stream size                              : 27.2 MiB (0%)
  59. Title                                    : English
  60. Language                                 : English
  61. Default                                  : No
  62. Forced                                   : No

  63. Text #2
  64. ID                                       : 4
  65. Format                                   : PGS
  66. Muxing mode                              : zlib
  67. Codec ID                                 : S_HDMV/PGS
  68. Codec ID/Info                            : Picture based subtitle format used on BDs/HD-DVDs
  69. Duration                                 : 1 h 43 min
  70. Bit rate                                 : 33.7 kb/s
  71. Count of elements                        : 2469
  72. Stream size                              : 24.9 MiB (0%)
  73. Title                                    : Spanish
  74. Language                                 : Spanish
  75. Default                                  : No
  76. Forced                                   : No

  77. Menu
  78. 00:00:00.000                             : en:Chapter 01
  79. 00:07:46.549                             : en:Chapter 02
  80. 00:12:26.454                             : en:Chapter 03
  81. 00:21:22.823                             : en:Chapter 04
  82. 00:24:53.951                             : en:Chapter 05
  83. 00:30:46.428                             : en:Chapter 06
  84. 00:38:22.967                             : en:Chapter 07
  85. 00:44:51.480                             : en:Chapter 08
  86. 00:52:48.624                             : en:Chapter 09
  87. 00:56:01.233                             : en:Chapter 10
  88. 00:59:44.790                             : en:Chapter 11
  89. 01:07:49.232                             : en:Chapter 12
  90. 01:13:31.657                             : en:Chapter 13
  91. 01:20:24.278                             : en:Chapter 14
  92. 01:28:43.860                             : en:Chapter 15
  93. 01:36:53.141                             : en:Chapter 16
复制代码




                                       
                                       

                                       
                                       
                                       




回复

使用道具 举报

懒得打字嘛,点击右侧快捷回复 【右侧内容,后台自定义】
您需要登录后才可以回帖 登录 | 立即加入

本版积分规则

Archiver|小黑屋| 蓝光电影网 |网站地图

Copyright © 2021 Comsenz Inc. Powered by 蓝光电影网

蓝光电影网

本站内容由用户自主分享和转载自互联网,转载目的在于传递更多信息,并不代表本网赞同其观点和对其真实性负责。

如有侵权、违反国家法律政策行为,请联系我们,我们会第一时间及时清除和处理!

举报反馈邮箱:[email protected]

快速回复 返回顶部 返回列表