找回密码

蓝光电影网

查看: 21|回复: 0

[动作] 特种空勤团:红色通缉令/SAS:红色通知 SAS.Red.Notice.2021.1080p.BluRay.x264-RUSTED 9.74GB

[复制链接]
蓝光币
426
发表于 2021-5-20 08:40:25 | 显示全部楼层 |阅读模式
[img][/img]

◎译  名 特种空勤团:红色通缉令/SAS:红色告诉
◎片  名 SAS: Red Notice
◎年  代 2021
◎产  地 英国,匈牙利,荷兰,瑞士
◎类  别 行动 / 犯罪
◎语  言 英语
◎上映日期 2021-03-12(英国)
◎豆瓣评分 5.4/10 from 790 users
◎豆瓣链接 https://movie.douban.com/subject/26322998/
◎导  演 马格努斯·马滕斯 Magnus Martens / 尼克·拉夫 Nick Love
◎编  剧 Andy McNab
◎主  演 萨姆·修汉 Sam Heughan
       鲁比·罗丝 Ruby Rose
       安迪·瑟金斯 Andy Serkis
       汉娜·乔恩-卡门 Hannah John-Kamen
       汤姆·霍珀 Tom Hopper
       诺埃尔·克拉克 Noel Clarke
       汤姆·威尔金森 Tom Wilkinson
       欧文·约曼 Owain Yeoman
       雷·潘莎基 Ray Panthaki
       安妮·雷德 Anne Reid
       陆思敬 Jing Lusi
       萨拉·温特 Sarah Winter
       理查德·麦凯布 Richard McCabe
       道格拉斯·瑞斯 Douglas Reith
       戴兰·史姑娘 Dylan Smith
       卡罗琳·博尔顿 Caroline Boulton
       阿提拉·阿帕 Attila árpa
       蒂姆·费林汉姆 Tim Fellingham
       泰·赫尔利 Ty Hurley
       马丁·安格鲍尔 Martin Angerbauer
       罗德里克·希尔 Roderick Hill
       巴尔·瓦斯维尔斯 Balázs Veres
◎标  签 行动 | 英国 | 犯罪 | 2021 | 电影 | 2020 | B欧洲 | 2020观影
◎简  介


  一支由拉兹洛·安东诺夫带领的练习有素的罪犯组成的小军队在英吉祥海峡深处劫持了“欧洲之星”。
  1. Video
  2. ID                                       : 1
  3. Format                                   : AVC
  4. Format/Info                              : Advanced Video Codec
  5. Format profile                           : [email protected]
  6. Format settings                          : CABAC / 5 Ref Frames
  7. Format settings, CABAC                   : Yes
  8. Format settings, Reference frames        : 5 frames
  9. Codec ID                                 : V_MPEG4/ISO/AVC
  10. Duration                                 : 2 h 3 min
  11. Bit rate                                 : 9 352 kb/s
  12. Width                                    : 1 920 pixels
  13. Height                                   : 802 pixels
  14. Display aspect ratio                     : 2.40:1
  15. Frame rate mode                          : Constant
  16. Frame rate                               : 23.976 (24000/1001/189150) FPS
  17. Color space                              : YUV
  18. Chroma subsampling                       : 4:2:0
  19. Bit depth                                : 8 bits
  20. Scan type                                : Progressive
  21. Bits/(Pixel*Frame)                       : 0.253
  22. Stream size                              : 8.09 GiB (83%)
  23. Writing library                          : x264 core 163 r3059 b684ebe
  24. Encoding settings                        : cabac=1 / ref=5 / deblock=1:-3:-3 / analyse=0x3:0x133 / me=umh / subme=9 / psy=1 / psy_rd=1.00:0.00 / mixed_ref=1 / me_range=16 / chroma_me=1 / trellis=2 / 8x8dct=1 / cqm=0 / deadzone=21,11 / fast_pskip=0 / chroma_qp_offset=-2 / threads=24 / lookahead_threads=2 / sliced_threads=0 / nr=0 / decimate=0 / interlaced=0 / bluray_compat=0 / constrained_intra=0 / bframes=3 / b_pyramid=2 / b_adapt=2 / b_bias=0 / direct=3 / weightb=1 / open_gop=0 / weightp=2 / keyint=250 / keyint_min=23 / scenecut=40 / intra_refresh=0 / rc=crf / mbtree=0 / crf=18.0 / qcomp=0.60 / qpmin=0 / qpmax=69 / qpstep=4 / ip_ratio=1.40 / pb_ratio=1.30 / aq=3:0.70
  25. Language                                 : English
  26. Default                                  : Yes
  27. Forced                                   : No
  28. Color range                              : Limited
  29. Matrix coefficients                      : BT.709

  30. Audio
  31. ID                                       : 2
  32. Format                                   : DTS XLL
  33. Format/Info                              : Digital Theater Systems
  34. Commercial name                          : DTS-HD Master Audio
  35. Codec ID                                 : A_DTS
  36. Duration                                 : 2 h 3 min
  37. Bit rate mode                            : Variable
  38. Bit rate                                 : 1 885 kb/s
  39. Channel(s)                               : 6 channels
  40. Channel layout                           : C L R Ls Rs LFE
  41. Sampling rate                            : 48.0 kHz
  42. Frame rate                               : 93.750 FPS (512 SPF)
  43. Bit depth                                : 16 bits
  44. Compression mode                         : Lossless
  45. Stream size                              : 1.63 GiB (17%)
  46. Language                                 : English
  47. Default                                  : Yes
  48. Forced                                   : No

  49. Text #1
  50. ID                                       : 3
  51. Format                                   : UTF-8
  52. Codec ID                                 : S_TEXT/UTF8
  53. Codec ID/Info                            : UTF-8 Plain Text
  54. Duration                                 : 1 h 57 min
  55. Bit rate                                 : 50 b/s
  56. Count of elements                        : 1301
  57. Stream size                              : 43.7 KiB (0%)
  58. Title                                    : English (SRT)
  59. Language                                 : English
  60. Default                                  : No
  61. Forced                                   : No

  62. Text #2
  63. ID                                       : 4
  64. Format                                   : UTF-8
  65. Codec ID                                 : S_TEXT/UTF8
  66. Codec ID/Info                            : UTF-8 Plain Text
  67. Duration                                 : 1 h 57 min
  68. Bit rate                                 : 54 b/s
  69. Count of elements                        : 1393
  70. Stream size                              : 46.7 KiB (0%)
  71. Title                                    : English (SDH SRT)
  72. Language                                 : English
  73. Default                                  : No
  74. Forced                                   : No

  75. Text #3
  76. ID                                       : 5
  77. Format                                   : PGS
  78. Muxing mode                              : zlib
  79. Codec ID                                 : S_HDMV/PGS
  80. Codec ID/Info                            : Picture based subtitle format used on BDs/HD-DVDs
  81. Duration                                 : 1 h 57 min
  82. Bit rate                                 : 28.6 kb/s
  83. Count of elements                        : 2786
  84. Stream size                              : 24.1 MiB (0%)
  85. Title                                    : English (SDH)
  86. Language                                 : English
  87. Default                                  : No
  88. Forced                                   : No

  89. Menu
  90. 00:00:00.000                             : Chapter 01
  91. 00:12:46.766                             : Chapter 02
  92. 00:30:22.612                             : Chapter 03
  93. 00:48:20.773                             : Chapter 04
  94. 01:12:58.416                             : Chapter 05
  95. 01:37:24.714                             : Chapter 06
复制代码




                                       
                                       

                                       
                                       
                                       




回复

使用道具 举报

懒得打字嘛,点击右侧快捷回复 【右侧内容,后台自定义】
您需要登录后才可以回帖 登录 | 立即加入

本版积分规则

Archiver|小黑屋| 蓝光电影网 |网站地图

Copyright © 2021 Comsenz Inc. Powered by 蓝光电影网

蓝光电影网

本站内容由用户自主分享和转载自互联网,转载目的在于传递更多信息,并不代表本网赞同其观点和对其真实性负责。

如有侵权、违反国家法律政策行为,请联系我们,我们会第一时间及时清除和处理!

举报反馈邮箱:[email protected]

快速回复 返回顶部 返回列表