找回密码

蓝光电影网

查看: 5|回复: 0

[动作] 艾娃 Ava.2020.720p.BluRay.x264.DTS-FGT 4.74GB

[复制链接]
蓝光币
426
发表于 2020-9-11 08:50:48 | 显示全部楼层 |阅读模式


◎译  名 艾娃/Eve/伊芙/头号杀姬Ava(港)/追杀艾娃(台)
◎片  名 Ava
◎年  代 2020
◎产  地 美国
◎类  别 行动 / 惊悚 / 犯罪
◎语  言 英语
◎上映日期 2020-07-02(匈牙利) / 2020-08-25(加拿大收集) / 2020-09-25(美国)
◎IMDb评分  5.3/10 from 8456 users
◎IMDb链接  https://www.imdb.com/title/tt8784956/
◎豆瓣评分 4.9/10 from 2956 users
◎豆瓣链接 https://movie.douban.com/subject/30289869/
◎片  长 96分钟
◎导  演 泰特·泰勒 Tate Taylor
◎编  剧 马修·纽顿 Matthew Newton
◎主  演 杰西卡·查斯坦 Jessica Chastain
       科林·法瑞尔 Colin Farrell
       约翰·马尔科维奇 John Malkovich
       吉娜·戴维斯 Geena Davis
       陈冲 Joan Chen
       戴安娜·西尔弗斯 Diana Silvers
       科曼 Common
       艾恩·格拉法德 Ioan Gruffudd
       杰丝·威克斯勒 Jess Weixler
       埃夫卡·科瓦拉西尤斯 Efka Kvaraciejus
       安妮·比萨比亚 Annie Pisapia
       克里斯托弗·J·多米格 Christopher J. Domig
◎标  签 行动 | 美国 | 杰西卡·查斯坦 | 2020 | 美国电影 | 科林·法瑞尔 | 剧情 | 陈冲
◎简  介


  顶尖杀手艾娃效忠于一个神祕构造,在全球各地履行高代价方针的暗杀行动。但是,一次出了过失的行动,让艾娃身陷生死危机。面临各路杀手遮天蔽日的追杀,无路可退的艾娃惟有杀出血路,才有活下去的机遇…
  1. Video
  2. ID                                       : 1
  3. Format                                   : AVC
  4. Format/Info                              : Advanced Video Codec
  5. Format profile                           : [email protected]
  6. Format settings                          : CABAC / 4 Ref Frames
  7. Format settings, CABAC                   : Yes
  8. Format settings, Reference frames        : 4 frames
  9. Codec ID                                 : V_MPEG4/ISO/AVC
  10. Duration                                 : 1 h 36 min
  11. Bit rate                                 : 5 500 kb/s
  12. Width                                    : 1 280 pixels
  13. Height                                   : 534 pixels
  14. Display aspect ratio                     : 2.40:1
  15. Original display aspect ratio            : 2.40:1
  16. Frame rate mode                          : Constant
  17. Frame rate                               : 23.976 (24000/1001/189150) FPS
  18. Color space                              : YUV
  19. Chroma subsampling                       : 4:2:0
  20. Bit depth                                : 8 bits
  21. Scan type                                : Progressive
  22. Bits/(Pixel*Frame)                       : 0.336
  23. Stream size                              : 3.72 GiB (78%)
  24. Title                                    : Ava.2020.720p.BluRay.x264.DTS-FGT
  25. Writing library                          : x264 core 148 r2795M aaa9aa8
  26. Encoding settings                        : cabac=1 / ref=4 / deblock=1:-2:-2 / analyse=0x3:0x113 / me=umh / subme=9 / psy=1 / psy_rd=1.00:0.15 / mixed_ref=1 / me_range=16 / chroma_me=1 / trellis=2 / 8x8dct=1 / cqm=0 / deadzone=21,11 / fast_pskip=1 / chroma_qp_offset=-3 / threads=24 / lookahead_threads=3 / sliced_threads=0 / nr=0 / decimate=1 / interlaced=0 / bluray_compat=0 / constrained_intra=0 / bframes=3 / b_pyramid=2 / b_adapt=1 / b_bias=0 / direct=3 / weightb=1 / open_gop=0 / weightp=2 / keyint=250 / keyint_min=25 / scenecut=40 / intra_refresh=0 / rc_lookahead=50 / rc=2pass / mbtree=1 / bitrate=5500 / ratetol=1.0 / qcomp=0.60 / qpmin=0 / qpmax=69 / qpstep=4 / cplxblur=20.0 / qblur=0.5 / vbv_maxrate=31250 / vbv_bufsize=31250 / nal_hrd=none / filler=0 / ip_ratio=1.40 / aq=1:1.00
  27. Language                                 : English
  28. Default                                  : Yes
  29. Forced                                   : No
  30. Audio
  31. ID                                       : 2
  32. Format                                   : DTS
  33. Format/Info                              : Digital Theater Systems
  34. Codec ID                                 : A_DTS
  35. Duration                                 : 1 h 36 min
  36. Bit rate mode                            : Constant
  37. Bit rate                                 : 1 509 kb/s
  38. Channel(s)                               : 6 channels
  39. Channel layout                           : C L R Ls Rs LFE
  40. Sampling rate                            : 48.0 kHz
  41. Frame rate                               : 93.750 FPS (512 SPF)
  42. Bit depth                                : 24 bits
  43. Compression mode                         : Lossy
  44. Stream size                              : 1.02 GiB (22%)
  45. Title                                    : Ava.2020.720p.BluRay.x264.DTS-FGT
  46. Language                                 : English
  47. Default                                  : Yes
  48. Forced                                   : No
  49. Text
  50. ID                                       : 3
  51. Format                                   : UTF-8
  52. Codec ID                                 : S_TEXT/UTF8
  53. Codec ID/Info                            : UTF-8 Plain Text
  54. Duration                                 : 1 h 30 min
  55. Bit rate                                 : 45 b/s
  56. Count of elements                        : 909
  57. Stream size                              : 30.5 KiB (0%)
  58. Language                                 : English
  59. Default                                  : Yes
  60. Forced                                   : No
  61. Menu
  62. 00:00:00.000                             : en:Chapter 01
  63. 00:11:07.542                             : en:Chapter 02
  64. 00:21:53.145                             : en:Chapter 03
  65. 00:32:22.899                             : en:Chapter 04
  66. 00:44:26.497                             : en:Chapter 05
  67. 00:58:33.427                             : en:Chapter 06
  68. 01:10:38.192                             : en:Chapter 07
  69. 01:18:23.949                             : en:Chapter 08
  70. 01:32:28.752                             : en:Chapter 09
复制代码






                                       
                                       

                                       
                                       
                                       




回复

使用道具 举报

懒得打字嘛,点击右侧快捷回复 【右侧内容,后台自定义】
您需要登录后才可以回帖 登录 | 立即加入

本版积分规则

Archiver|小黑屋| 蓝光电影网 |网站地图

Copyright © 2021 Comsenz Inc. Powered by 蓝光电影网

蓝光电影网

本站内容由用户自主分享和转载自互联网,转载目的在于传递更多信息,并不代表本网赞同其观点和对其真实性负责。

如有侵权、违反国家法律政策行为,请联系我们,我们会第一时间及时清除和处理!

举报反馈邮箱:[email protected]

快速回复 返回顶部 返回列表