找回密码

蓝光电影网

查看: 4|回复: 0

[喜剧] 丑态百出/贫富之间 Life.Stinks.1991.1080p.BluRay.x264-USURY 6.55GB

[复制链接]
蓝光币
382
发表于 2020-8-19 23:07:16 | 显示全部楼层 |阅读模式
◎译  名 丑态百出 / 贫富之间
◎片  名 丑态百出 Life Stinks
◎年  代 1991
◎国  家 美国
◎类  别 笑剧 / 恋爱
◎语  言 英语 / 西班牙语
◎上映日期 1991-07-26
◎IMDb评分  6.0/10 from 9,313 users
◎IMDb链接  http://www.imdb.com/title/tt0102303/
◎豆瓣评分 7.8/10 from  users
◎豆瓣链接 https://movie.douban.com/subject/1308871/
◎片  长 92 分钟 / Finland: 96 分钟(theatrical version)
◎导  演 梅尔 布鲁克斯 (Mel Brooks)
◎主  演 Mel Brooks
      Lesley Ann Warren
      Jeffrey Tambor
◎简  介

 
  歌德里·布路特师长很富有,一天,他和维尔森·科拉德赌博,假如他身无分文,能在穷户区生活30天,便可获得科拉德的财富,否则他的财富就要归科拉德一切。是以,布路特起头过着流浪汉般的生活,历经含辛茹苦,他终究克服了自我,成功做到了这一点。最初,尝尽生活悲欢离合的歌德里·布路特终究晓得生活的意义,因而他决议取出一大笔钱用来帮助那些温饱交迫的穷户……
  1. Video
  2. ID                                       : 1
  3. Format                                   : AVC
  4. Format/Info                              : Advanced Video Codec
  5. Format profile                           : [email protected]
  6. Format settings                          : CABAC / 4 Ref Frames
  7. Format settings, CABAC                   : Yes
  8. Format settings, Reference frames        : 4 frames
  9. Codec ID                                 : V_MPEG4/ISO/AVC
  10. Duration                                 : 1 h 32 min
  11. Bit rate                                 : 8 683 kb/s
  12. Width                                    : 1 920 pixels
  13. Height                                   : 1 040 pixels
  14. Display aspect ratio                     : 1.85:1
  15. Frame rate mode                          : Constant
  16. Frame rate                               : 23.976 FPS
  17. Color space                              : YUV
  18. Chroma subsampling                       : 4:2:0
  19. Bit depth                                : 8 bits
  20. Scan type                                : Progressive
  21. Bits/(Pixel*Frame)                       : 0.181
  22. Stream size                              : 5.58 GiB (85%)
  23. Writing library                          : x264 core 146 r2538 121396c
  24. Encoding settings                        : cabac=1 / ref=4 / deblock=1:0:0 / analyse=0x3:0x133 / me=umh / subme=7 / psy=1 / psy_rd=1.00:0.00 / mixed_ref=1 / me_range=16 / chroma_me=1 / trellis=1 / 8x8dct=1 / cqm=0 / deadzone=21,11 / fast_pskip=0 / chroma_qp_offset=-2 / threads=60 / lookahead_threads=8 / sliced_threads=0 / nr=0 / decimate=1 / interlaced=0 / bluray_compat=0 / constrained_intra=0 / bframes=3 / b_pyramid=2 / b_adapt=2 / b_bias=0 / direct=3 / weightb=1 / open_gop=0 / weightp=2 / keyint=250 / keyint_min=23 / scenecut=40 / intra_refresh=0 / rc_lookahead=50 / rc=2pass / mbtree=1 / bitrate=8683 / ratetol=1.0 / qcomp=0.60 / qpmin=0 / qpmax=69 / qpstep=4 / cplxblur=20.0 / qblur=0.5 / ip_ratio=1.40 / aq=1:1.00
  25. Language                                 : English
  26. Default                                  : Yes
  27. Forced                                   : No

  28. Audio
  29. ID                                       : 2
  30. Format                                   : DTS
  31. Format/Info                              : Digital Theater Systems
  32. Codec ID                                 : A_DTS
  33. Duration                                 : 1 h 32 min
  34. Bit rate mode                            : Constant
  35. Bit rate                                 : 1 509 kb/s
  36. Channel(s)                               : 2 channels
  37. Channel layout                           : L R
  38. Sampling rate                            : 48.0 kHz
  39. Frame rate                               : 93.750 FPS (512 SPF)
  40. Bit depth                                : 24 bits
  41. Compression mode                         : Lossy
  42. Stream size                              : 994 MiB (15%)
  43. Language                                 : English
  44. Default                                  : Yes
  45. Forced                                   : No

  46. Menu
  47. 00:00:00.000                             : en:00:00:00.000
  48. 00:11:31.149                             : en:00:11:31.149
  49. 00:22:48.367                             : en:00:22:48.367
  50. 00:37:29.747                             : en:00:37:29.747
  51. 00:51:23.122                             : en:00:51:23.122
  52. 01:00:19.407                             : en:01:00:19.407
  53. 01:09:45.973                             : en:01:09:45.973
  54. 01:16:45.309                             : en:01:16:45.309
复制代码









                                       
                                       

                                       
                                       
                                       




回复

使用道具 举报

懒得打字嘛,点击右侧快捷回复 【右侧内容,后台自定义】
您需要登录后才可以回帖 登录 | 立即加入

本版积分规则

Archiver|小黑屋| 蓝光电影网 |网站地图

Copyright © 2021 Comsenz Inc. Powered by 蓝光电影网

蓝光电影网

本站内容由用户自主分享和转载自互联网,转载目的在于传递更多信息,并不代表本网赞同其观点和对其真实性负责。

如有侵权、违反国家法律政策行为,请联系我们,我们会第一时间及时清除和处理!

举报反馈邮箱:[email protected]

快速回复 返回顶部 返回列表