找回密码

蓝光电影网

查看: 9|回复: 0

[惊悚] 索命咒/咒语 Spell.2020.720p.BluRay.x264-VETO 3.69GB

[复制链接]
蓝光币
386
发表于 2021-1-14 18:43:09 | 显示全部楼层 |阅读模式
[img][/img]

◎译  名 索命咒/咒语(台)
◎片  名 Spell
◎年  代 2020
◎产  地 美国
◎类  别 惊悚 / 可骇
◎语  言 英语
◎上映日期 2020-10-30(美国收集)
◎IMDb评分  5.4/10 from 2494 users
◎IMDb链接  https://www.imdb.com/title/tt10736580/
◎豆瓣评分 5.9/10 from 743 users
◎豆瓣链接 https://movie.douban.com/subject/34889611/
◎片  长 91分钟
◎导  演 马克·托德莱 Mark Tonderai
◎编  剧 科特·维莫 Kurt Wimmer
◎主  演 欧玛瑞·哈德威克 Omari Hardwick
       洛雷塔·迪瓦恩 Loretta Devine
       洛林·布伦斯 Lorraine Burroughs
       汉娜·格内拉 Hannah Gonera  
       卡利法·波顿 Kalifa Burton
       约翰·比斯利 John Beasley
       图米绍·麻沙 Tumisho Masha
       史蒂夫·穆鲁鲁 Steve Mululu
       彼得·巴特勒 Peter Butler
       安德烈·雅各布斯 Andre Jacobs
       尤尔·马西滕 Yule Masiteng
◎标  签 可骇 | 惊悚 | 巫术 | 美国 | 2020 | 黑人 | 悬疑 | 可骇惊悚悬疑重口血腥
◎简  介


  Marquis(欧玛瑞·哈德威克 饰)带着家人飞往偏僻的阿帕拉契加入父亲的丧礼,不意途中一场狂风雨使得飞机失控。Marquis醒来时受了伤,自己一人困在Ms. Eloise(洛雷塔·迪瓦恩 饰)的阁楼里。Ms.Eloise说自己用了Marquis的血和皮肤建造了巫毒Boogity,并将利用Boogity帮他治疗康复。求救无门的Marquis只能想尽法子以智取胜,试图下个月圆之夜之前逃离Ms. Eloise的巫术并拯救自己的家人免于这场邪恶的祭典。
  1. Video
  2. ID                                       : 1
  3. Format                                   : AVC
  4. Format/Info                              : Advanced Video Codec
  5. Format profile                           : [email protected]
  6. Format settings                          : CABAC / 8 Ref Frames
  7. Format settings, CABAC                   : Yes
  8. Format settings, Reference frames        : 8 frames
  9. Codec ID                                 : V_MPEG4/ISO/AVC
  10. Duration                                 : 1 h 31 min
  11. Bit rate                                 : 5 035 kb/s
  12. Width                                    : 1 280 pixels
  13. Height                                   : 536 pixels
  14. Display aspect ratio                     : 2.40:1
  15. Frame rate mode                          : Constant
  16. Frame rate                               : 23.976 (24000/1001/189150) FPS
  17. Color space                              : YUV
  18. Chroma subsampling                       : 4:2:0
  19. Bit depth                                : 8 bits
  20. Scan type                                : Progressive
  21. Bits/(Pixel*Frame)                       : 0.306
  22. Stream size                              : 3.22 GiB (87%)
  23. Writing library                          : x264 core 161 r3033 0d754ec
  24. Encoding settings                        : cabac=1 / ref=8 / deblock=1:-3:-3 / analyse=0x3:0x133 / me=umh / subme=9 / psy=1 / psy_rd=1.00:0.00 / mixed_ref=1 / me_range=16 / chroma_me=1 / trellis=2 / 8x8dct=1 / cqm=0 / deadzone=21,11 / fast_pskip=0 / chroma_qp_offset=-2 / threads=24 / lookahead_threads=2 / sliced_threads=0 / nr=0 / decimate=0 / interlaced=0 / bluray_compat=0 / constrained_intra=0 / bframes=3 / b_pyramid=2 / b_adapt=2 / b_bias=0 / direct=3 / weightb=1 / open_gop=0 / weightp=2 / keyint=250 / keyint_min=23 / scenecut=40 / intra_refresh=0 / rc=crf / mbtree=0 / crf=17.0 / qcomp=0.60 / qpmin=0 / qpmax=69 / qpstep=4 / ip_ratio=1.40 / pb_ratio=1.30 / aq=3:0.70
  25. Language                                 : English
  26. Default                                  : Yes
  27. Forced                                   : No
  28. Color range                              : Limited
  29. Matrix coefficients                      : BT.709

  30. Audio
  31. ID                                       : 2
  32. Format                                   : AC-3
  33. Format/Info                              : Audio Coding 3
  34. Commercial name                          : Dolby Digital
  35. Codec ID                                 : A_AC3
  36. Duration                                 : 1 h 31 min
  37. Bit rate mode                            : Constant
  38. Bit rate                                 : 640 kb/s
  39. Channel(s)                               : 6 channels
  40. Channel layout                           : L R C LFE Ls Rs
  41. Sampling rate                            : 48.0 kHz
  42. Frame rate                               : 31.250 FPS (1536 SPF)
  43. Compression mode                         : Lossy
  44. Stream size                              : 418 MiB (11%)
  45. Language                                 : English
  46. Service kind                             : Complete Main
  47. Default                                  : Yes
  48. Forced                                   : No

  49. Text #1
  50. ID                                       : 3
  51. Format                                   : PGS
  52. Codec ID                                 : S_HDMV/PGS
  53. Codec ID/Info                            : Picture based subtitle format used on BDs/HD-DVDs
  54. Duration                                 : 1 h 23 min
  55. Bit rate                                 : 27.7 kb/s
  56. Count of elements                        : 1502
  57. Stream size                              : 16.5 MiB (0%)
  58. Title                                    : English
  59. Language                                 : English
  60. Default                                  : No
  61. Forced                                   : No

  62. Text #2
  63. ID                                       : 4
  64. Format                                   : PGS
  65. Codec ID                                 : S_HDMV/PGS
  66. Codec ID/Info                            : Picture based subtitle format used on BDs/HD-DVDs
  67. Duration                                 : 1 h 26 min
  68. Bit rate                                 : 33.3 kb/s
  69. Count of elements                        : 2030
  70. Stream size                              : 20.6 MiB (1%)
  71. Title                                    : English (SDH)
  72. Language                                 : English
  73. Default                                  : No
  74. Forced                                   : No

  75. Text #3
  76. ID                                       : 5
  77. Format                                   : PGS
  78. Codec ID                                 : S_HDMV/PGS
  79. Codec ID/Info                            : Picture based subtitle format used on BDs/HD-DVDs
  80. Duration                                 : 1 h 30 min
  81. Bit rate                                 : 24.9 kb/s
  82. Count of elements                        : 1508
  83. Stream size                              : 16.2 MiB (0%)
  84. Title                                    : French
  85. Language                                 : French
  86. Default                                  : No
  87. Forced                                   : No

  88. Text #4
  89. ID                                       : 6
  90. Format                                   : PGS
  91. Codec ID                                 : S_HDMV/PGS
  92. Codec ID/Info                            : Picture based subtitle format used on BDs/HD-DVDs
  93. Duration                                 : 1 h 30 min
  94. Bit rate                                 : 23.6 kb/s
  95. Count of elements                        : 1488
  96. Stream size                              : 15.3 MiB (0%)
  97. Title                                    : Spanish
  98. Language                                 : Spanish
  99. Default                                  : No
  100. Forced                                   : No

  101. Text #5
  102. ID                                       : 7
  103. Format                                   : UTF-8
  104. Codec ID                                 : S_TEXT/UTF8
  105. Codec ID/Info                            : UTF-8 Plain Text
  106. Duration                                 : 1 h 23 min
  107. Bit rate                                 : 42 b/s
  108. Count of elements                        : 751
  109. Stream size                              : 25.8 KiB (0%)
  110. Title                                    : English (SRT)
  111. Language                                 : English
  112. Default                                  : No
  113. Forced                                   : No

  114. Text #6
  115. ID                                       : 8
  116. Format                                   : UTF-8
  117. Codec ID                                 : S_TEXT/UTF8
  118. Codec ID/Info                            : UTF-8 Plain Text
  119. Duration                                 : 1 h 26 min
  120. Bit rate                                 : 49 b/s
  121. Count of elements                        : 1015
  122. Stream size                              : 31.6 KiB (0%)
  123. Title                                    : English (SDH SRT)
  124. Language                                 : English
  125. Default                                  : No
  126. Forced                                   : No

  127. Menu
  128. 00:00:00.000                             : en:Chapter 01
  129. 00:06:27.095                             : en:Chapter 02
  130. 00:16:16.851                             : en:Chapter 03
  131. 00:25:30.779                             : en:Chapter 04
  132. 00:33:16.870                             : en:Chapter 05
  133. 00:41:28.778                             : en:Chapter 06
  134. 00:49:07.403                             : en:Chapter 07
  135. 00:58:32.551                             : en:Chapter 08
  136. 01:05:45.984                             : en:Chapter 09
  137. 01:11:00.214                             : en:Chapter 10
  138. 01:16:46.811                             : en:Chapter 11
  139. 01:24:28.730                             : en:Chapter 12
复制代码



                                       
                                       

                                       
                                       
                                       




回复

使用道具 举报

懒得打字嘛,点击右侧快捷回复 【右侧内容,后台自定义】
您需要登录后才可以回帖 登录 | 立即加入

本版积分规则

Archiver|小黑屋| 蓝光电影网 |网站地图

Copyright © 2021 Comsenz Inc. Powered by 蓝光电影网

蓝光电影网

本站内容由用户自主分享和转载自互联网,转载目的在于传递更多信息,并不代表本网赞同其观点和对其真实性负责。

如有侵权、违反国家法律政策行为,请联系我们,我们会第一时间及时清除和处理!

举报反馈邮箱:[email protected]tmail.com

快速回复 返回顶部 返回列表