找回密码

蓝光电影网

查看: 16|回复: 0

[喜剧] 窈窕男女/窈窕疯人院 The.Road.to.Wellville.1994.1080p.BluRay.x264-USURY 8.74GB

[复制链接]
蓝光币
426
发表于 2020-8-19 22:51:15 | 显示全部楼层 |阅读模式
◎译  名 窈窕男女 / 窈窕疯人院
◎片  名 窈窕男女 The Road to Wellville
◎年  代 1994
◎国  家 美国
◎类  别 笑剧 / 历史
◎语  言 英语
◎上映日期 1994-10-28
◎IMDb评分  5.9/10 from 11,252 users
◎IMDb链接  http://www.imdb.com/title/tt0111001/
◎豆瓣评分 7.0/10 from  users
◎豆瓣链接 https://movie.douban.com/subject/1301754/
◎片  长 118 分钟
◎导  演 艾伦·帕克
◎主  演 Anthony Hopkins
      Bridget Fonda
      Matthew Broderick
      John Cusack
      Dana Carvey
◎简  介

 
  故事布景设定在二十世纪初,以发现健康玉米片著名全球的凯洛博士经营了一家令信徒们为之疯狂的健身疗养院,他在院中提倡禁欲、素食、瘦肠等特此外健身法,又用军事化的治理率领大师唱歌做体操,使一对慕名前来的年轻夫妻大开眼界,别离履历了一段匪夷所思的奇遇。
◎获奖情况 
  第7届东京国际电影节 (1994)
  主比赛单元 最好影片(提名) 艾伦·帕克
  1. Video
  2. ID                                       : 1
  3. Format                                   : AVC
  4. Format/Info                              : Advanced Video Codec
  5. Format profile                           : [email protected]
  6. Format settings                          : CABAC / 4 Ref Frames
  7. Format settings, CABAC                   : Yes
  8. Format settings, Reference frames        : 4 frames
  9. Codec ID                                 : V_MPEG4/ISO/AVC
  10. Duration                                 : 2 h 0 min
  11. Bit rate                                 : 8 921 kb/s
  12. Width                                    : 1 920 pixels
  13. Height                                   : 1 040 pixels
  14. Display aspect ratio                     : 1.85:1
  15. Frame rate mode                          : Constant
  16. Frame rate                               : 23.976 (24000/1001/189150) FPS
  17. Color space                              : YUV
  18. Chroma subsampling                       : 4:2:0
  19. Bit depth                                : 8 bits
  20. Scan type                                : Progressive
  21. Bits/(Pixel*Frame)                       : 0.186
  22. Stream size                              : 7.48 GiB (86%)
  23. Writing library                          : x264 core 150 r2833 df79067
  24. Encoding settings                        : cabac=1 / ref=4 / deblock=1:-3:-3 / analyse=0x3:0x133 / me=umh / subme=9 / psy=1 / psy_rd=1.00:0.00 / mixed_ref=1 / me_range=16 / chroma_me=1 / trellis=2 / 8x8dct=1 / cqm=0 / deadzone=21,11 / fast_pskip=0 / chroma_qp_offset=-2 / threads=24 / lookahead_threads=2 / sliced_threads=0 / nr=0 / decimate=1 / interlaced=0 / bluray_compat=0 / constrained_intra=0 / bframes=3 / b_pyramid=2 / b_adapt=1 / b_bias=0 / direct=3 / weightb=1 / open_gop=0 / weightp=2 / keyint=250 / keyint_min=23 / scenecut=40 / intra_refresh=0 / rc_lookahead=50 / rc=2pass / mbtree=1 / bitrate=8921 / ratetol=1.0 / qcomp=0.60 / qpmin=0 / qpmax=69 / qpstep=4 / cplxblur=20.0 / qblur=0.5 / ip_ratio=1.40 / aq=1:1.00
  25. Language                                 : English
  26. Default                                  : Yes
  27. Forced                                   : No

  28. Audio
  29. ID                                       : 2
  30. Format                                   : DTS
  31. Format/Info                              : Digital Theater Systems
  32. Codec ID                                 : A_DTS
  33. Duration                                 : 2 h 0 min
  34. Bit rate mode                            : Constant
  35. Bit rate                                 : 1 509 kb/s
  36. Channel(s)                               : 2 channels
  37. Channel layout                           : L R
  38. Sampling rate                            : 48.0 kHz
  39. Frame rate                               : 93.750 FPS (512 SPF)
  40. Bit depth                                : 24 bits
  41. Compression mode                         : Lossy
  42. Stream size                              : 1.27 GiB (14%)
  43. Language                                 : English
  44. Default                                  : Yes
  45. Forced                                   : No

  46. Menu
  47. 00:00:00.000                             : en:00:00:00.000
  48. 00:15:20.878                             : en:00:15:20.878
  49. 00:29:29.226                             : en:00:29:29.226
  50. 00:45:20.551                             : en:00:45:20.551
  51. 01:06:46.878                             : en:01:06:46.878
  52. 01:22:23.105                             : en:01:22:23.105
  53. 01:39:46.147                             : en:01:39:46.147
  54. 01:57:05.310                             : en:01:57:05.310
复制代码




                                       
                                       

                                       
                                       
                                       




回复

使用道具 举报

懒得打字嘛,点击右侧快捷回复 【右侧内容,后台自定义】
您需要登录后才可以回帖 登录 | 立即加入

本版积分规则

Archiver|小黑屋| 蓝光电影网 |网站地图

Copyright © 2021 Comsenz Inc. Powered by 蓝光电影网

蓝光电影网

本站内容由用户自主分享和转载自互联网,转载目的在于传递更多信息,并不代表本网赞同其观点和对其真实性负责。

如有侵权、违反国家法律政策行为,请联系我们,我们会第一时间及时清除和处理!

举报反馈邮箱:[email protected]

快速回复 返回顶部 返回列表