找回密码

蓝光电影网

查看: 20|回复: 0

[动作] 龙争虎斗 Enter.the.Dragon.1973.THEATRiCAL.1080p.BluRay.x264-USURY 15.01GB

[复制链接]
蓝光币
386
发表于 2021-5-19 09:38:39 | 显示全部楼层 |阅读模式
[img][/img]

◎译  名 龙争虎斗
◎片  名 Enter the Dragon
◎年  代 1973
◎产  地 美国,中国香港
◎类  别 行动 / 犯罪
◎语  言 英语,粤语
◎上映日期 1973-07-26
◎豆瓣评分 8.3/10 from 23098 users
◎豆瓣链接 https://movie.douban.com/subject/1293118/
◎片  长 102分钟
◎导  演 罗伯特·高洛斯 Robert Clouse / 水江龙一 Ryuichi Mizugae
◎主  演 李小龙 Bruce Lee
       石坚 Kien Shih
       茅瑛 Angela Mao
       约翰·萨克松 John Saxon
       吉米·凯利 Jim Kelly
       安娜卡普莉 Ahna Capri
       罗伯特·沃尔 Robert Wall
       钟玲玲 Betty Chung
       杨斯 Bolo Yeung
       Peter Archer
       郝履仁 Li Jen Ho
       玛琳·克拉克 Marlene Clark
       乔宏 Roy Chiao
       洪金宝 Sammo Hung Kam-Bo
       成龙 Jackie Chan
       元华 Wah Yuen
       张佩山 Pei-Shan Chang
       张作舟 Chok Chow Cheung
       周嘉崇 Chia-Chung Chou
       陈会毅 Billy Chan
       林正英 Ching-Ying Lam
       董玮 Wai Tung
       孟海 Hoi Mang
       元彬 Bun Yuen
       陈龙 Peter Chan Lung
       钟发 Fat Chung
◎标  签 李小龙 | 行动 | 香港 | 功夫 | 香港电影 | 1973 | 美国 | 功夫片
◎简  介


  少林叛徒韩师长(石坚 饰)变节少林后,斥资买下一座小岛将其革新成私人王国,韩师长及一干手下在岛上制贩毒品,逼迫女性卖淫,警方欲将其清闲法外却苦无证据。少林高徒李(李小龙 饰)的功夫已经超越无形境界,他受徒弟与政府拜托,预备加入三年一度由韩师长主办的交锋大会。交锋大会时代,是登陆孤岛汇集证据的唯一机遇。同时韩师长的私人保镳熬加达已经杀戮了李的姐姐,是李恨之入骨的仇人。
  
  交锋大会的约请发出,天下各地选手纷纷聚集,有债权缠身的鲁柏、勇于匹敌不公的威廉士等人与李一同登岛决一牝牡。李找到了政府在岛上安插的情报员美玲,在后者的帮助下,李与各路选手以及韩师长展开了一场龙争虎斗。
  1. Video
  2. ID                                       : 1
  3. Format                                   : AVC
  4. Format/Info                              : Advanced Video Codec
  5. Format profile                           : [email protected]
  6. Format settings                          : CABAC / 5 Ref Frames
  7. Format settings, CABAC                   : Yes
  8. Format settings, Reference frames        : 5 frames
  9. Codec ID                                 : V_MPEG4/ISO/AVC
  10. Duration                                 : 1 h 39 min
  11. Bit rate                                 : 20.9 Mb/s
  12. Width                                    : 1 920 pixels
  13. Height                                   : 816 pixels
  14. Display aspect ratio                     : 2.35:1
  15. Frame rate mode                          : Constant
  16. Frame rate                               : 23.976 (24000/1001/189150) FPS
  17. Color space                              : YUV
  18. Chroma subsampling                       : 4:2:0
  19. Bit depth                                : 8 bits
  20. Scan type                                : Progressive
  21. Bits/(Pixel*Frame)                       : 0.557
  22. Stream size                              : 14.5 GiB (97%)
  23. Writing library                          : x264 core 163 r3059 b684ebe
  24. Encoding settings                        : cabac=1 / ref=5 / deblock=1:-3:-3 / analyse=0x3:0x133 / me=umh / subme=10 / psy=1 / psy_rd=1.00:0.15 / mixed_ref=1 / me_range=24 / chroma_me=1 / trellis=2 / 8x8dct=1 / cqm=0 / deadzone=21,11 / fast_pskip=1 / chroma_qp_offset=-3 / threads=18 / lookahead_threads=3 / sliced_threads=0 / nr=0 / decimate=1 / interlaced=0 / bluray_compat=0 / constrained_intra=0 / bframes=8 / b_pyramid=2 / b_adapt=2 / b_bias=0 / direct=3 / weightb=1 / open_gop=0 / weightp=2 / keyint=250 / keyint_min=23 / scenecut=40 / intra_refresh=0 / rc_lookahead=60 / rc=crf / mbtree=1 / crf=19.7 / qcomp=0.60 / qpmin=0 / qpmax=69 / qpstep=4 / ip_ratio=1.40 / aq=3:0.50
  25. Language                                 : English
  26. Default                                  : Yes
  27. Forced                                   : No

  28. Audio
  29. ID                                       : 2
  30. Format                                   : FLAC
  31. Format/Info                              : Free Lossless Audio Codec
  32. Codec ID                                 : A_FLAC
  33. Duration                                 : 1 h 39 min
  34. Bit rate mode                            : Variable
  35. Bit rate                                 : 726 kb/s
  36. Channel(s)                               : 1 channel
  37. Channel layout                           : C
  38. Sampling rate                            : 48.0 kHz
  39. Frame rate                               : 11.719 FPS (4096 SPF)
  40. Bit depth                                : 24 bits
  41. Compression mode                         : Lossless
  42. Stream size                              : 516 MiB (3%)
  43. Writing library                          : libFLAC 1.2.1 (UTC 2007-09-17)
  44. Language                                 : English
  45. Default                                  : Yes
  46. Forced                                   : No

  47. Text #1
  48. ID                                       : 3
  49. Format                                   : UTF-8
  50. Codec ID                                 : S_TEXT/UTF8
  51. Codec ID/Info                            : UTF-8 Plain Text
  52. Duration                                 : 1 h 27 min
  53. Bit rate                                 : 22 b/s
  54. Count of elements                        : 471
  55. Stream size                              : 14.5 KiB (0%)
  56. Title                                    : English
  57. Language                                 : English
  58. Default                                  : No
  59. Forced                                   : No

  60. Text #2
  61. ID                                       : 4
  62. Format                                   : UTF-8
  63. Codec ID                                 : S_TEXT/UTF8
  64. Codec ID/Info                            : UTF-8 Plain Text
  65. Duration                                 : 1 h 35 min
  66. Bit rate                                 : 24 b/s
  67. Count of elements                        : 627
  68. Stream size                              : 17.3 KiB (0%)
  69. Title                                    : English SDH
  70. Language                                 : English
  71. Default                                  : No
  72. Forced                                   : No

  73. Text #3
  74. ID                                       : 5
  75. Format                                   : PGS
  76. Muxing mode                              : zlib
  77. Codec ID                                 : S_HDMV/PGS
  78. Codec ID/Info                            : Picture based subtitle format used on BDs/HD-DVDs
  79. Duration                                 : 1 h 35 min
  80. Bit rate                                 : 3 730 b/s
  81. Count of elements                        : 1254
  82. Stream size                              : 2.56 MiB (0%)
  83. Title                                    : English SDH
  84. Language                                 : English
  85. Default                                  : No
  86. Forced                                   : No

  87. Menu
  88. 00:00:00.000                             : en:00:00:00.000
  89. 00:02:44.664                             : en:00:02:44.664
  90. 00:05:39.714                             : en:00:05:39.714
  91. 00:11:52.754                             : en:00:11:52.754
  92. 00:18:32.445                             : en:00:18:32.445
  93. 00:27:32.860                             : en:00:27:32.860
  94. 00:31:26.051                             : en:00:31:26.051
  95. 00:42:34.510                             : en:00:42:34.510
  96. 00:48:01.587                             : en:00:48:01.587
  97. 00:55:09.598                             : en:00:55:09.598
  98. 01:02:41.174                             : en:01:02:41.174
  99. 01:08:38.614                             : en:01:08:38.614
  100. 01:13:14.432                             : en:01:13:14.432
  101. 01:22:22.437                             : en:01:22:22.437
  102. 01:29:47.799                             : en:01:29:47.799
复制代码




                                       
                                       

                                       
                                       
                                       




回复

使用道具 举报

懒得打字嘛,点击右侧快捷回复 【右侧内容,后台自定义】
您需要登录后才可以回帖 登录 | 立即加入

本版积分规则

Archiver|小黑屋| 蓝光电影网 |网站地图

Copyright © 2021 Comsenz Inc. Powered by 蓝光电影网

蓝光电影网

本站内容由用户自主分享和转载自互联网,转载目的在于传递更多信息,并不代表本网赞同其观点和对其真实性负责。

如有侵权、违反国家法律政策行为,请联系我们,我们会第一时间及时清除和处理!

举报反馈邮箱:[email protected]

快速回复 返回顶部 返回列表