找回密码

蓝光电影网

查看: 20|回复: 0

[动作] 侠盗/重装救援:全境猎杀 Rogue.2020.720p.BluRay.x264-WUTANG 6.71GB

[复制链接]
蓝光币
382
发表于 2020-8-23 08:47:18 | 显示全部楼层 |阅读模式


◎译  名 侠盗/重装救济:全境猎杀(台)
◎片  名 Rogue
◎年  代 2020
◎产  地 英国,南非
◎类  别 行动 / 战争
◎语  言 英语
◎上映日期 2020-08-28(美国)
◎IMDb链接  https://www.imdb.com/title/tt11576124/
◎豆瓣评分 /10 from 0 users
◎豆瓣链接 https://movie.douban.com/subject/35072571/
◎导  演 迈克尔·巴塞特 Michael J. Bassett
◎编  剧 迈克尔·巴塞特 Michael J. Bassett
◎主  演 梅根·福克斯 Megan Fox
       杰西卡·萨顿 Jessica Sutton
       菲利普·文切斯特 Philip Winchester
       李-安妮·莱本伯格 Lee-Anne Liebenberg
       布兰登·奥雷 Brandon Auret
       格雷格·克列克 Greg Kriek
       亚当·迪康 Adam Deacon
       塔梅尔·伯贾克 Tamer Burjaq
       肯尼思·霍 Kenneth Fok
◎标  签 行动 | 2020 | 美国 | 线上 | 英国 | 等评分 | 电影 | 战争
◎简  介


  报告梅根饰演脚色率领的一支雇佣兵,原本要去非洲某地救援人质,但不幸中了匿伏。在流亡进程中,雇佣兵小队不但要防人类的子弹,还要避开狮子的进犯。
  1. Video
  2. ID                                       : 1
  3. Format                                   : AVC
  4. Format/Info                              : Advanced Video Codec
  5. Format profile                           : [email protected]
  6. Format settings                          : CABAC / 8 Ref Frames
  7. Format settings, CABAC                   : Yes
  8. Format settings, Reference frames        : 8 frames
  9. Codec ID                                 : V_MPEG4/ISO/AVC
  10. Duration                                 : 1 h 45 min
  11. Bit rate                                 : 8 162 kb/s
  12. Width                                    : 1 280 pixels
  13. Height                                   : 534 pixels
  14. Display aspect ratio                     : 2.40:1
  15. Frame rate mode                          : Constant
  16. Frame rate                               : 23.976 (24000/1001/189150) FPS
  17. Color space                              : YUV
  18. Chroma subsampling                       : 4:2:0
  19. Bit depth                                : 8 bits
  20. Scan type                                : Progressive
  21. Bits/(Pixel*Frame)                       : 0.498
  22. Stream size                              : 6.04 GiB (90%)
  23. Writing library                          : x264 core 161 r3018 db0d417
  24. Encoding settings                        : cabac=1 / ref=8 / deblock=1:-3:-3 / analyse=0x3:0x133 / me=umh / subme=9 / psy=1 / psy_rd=1.00:0.00 / mixed_ref=1 / me_range=24 / chroma_me=1 / trellis=2 / 8x8dct=1 / cqm=0 / deadzone=21,11 / fast_pskip=0 / chroma_qp_offset=-2 / threads=17 / lookahead_threads=2 / sliced_threads=0 / nr=0 / decimate=1 / interlaced=0 / bluray_compat=0 / constrained_intra=0 / bframes=8 / b_pyramid=2 / b_adapt=2 / b_bias=0 / direct=3 / weightb=1 / open_gop=0 / weightp=2 / keyint=250 / keyint_min=23 / scenecut=40 / intra_refresh=0 / rc=crf / mbtree=0 / crf=15.2 / qcomp=0.60 / qpmin=0 / qpmax=69 / qpstep=4 / ip_ratio=1.40 / pb_ratio=1.30 / aq=3:0.80
  25. Default                                  : Yes
  26. Forced                                   : No
  27. Color range                              : Limited
  28. Matrix coefficients                      : BT.709

  29. Audio #1
  30. ID                                       : 2
  31. Format                                   : AC-3
  32. Format/Info                              : Audio Coding 3
  33. Commercial name                          : Dolby Digital
  34. Codec ID                                 : A_AC3
  35. Duration                                 : 1 h 45 min
  36. Bit rate mode                            : Constant
  37. Bit rate                                 : 640 kb/s
  38. Channel(s)                               : 6 channels
  39. Channel layout                           : L R C LFE Ls Rs
  40. Sampling rate                            : 48.0 kHz
  41. Frame rate                               : 31.250 FPS (1536 SPF)
  42. Compression mode                         : Lossy
  43. Stream size                              : 485 MiB (7%)
  44. Title                                    : English
  45. Language                                 : English
  46. Service kind                             : Complete Main
  47. Default                                  : Yes
  48. Forced                                   : No

  49. Audio #2
  50. ID                                       : 3
  51. Format                                   : AAC LC
  52. Format/Info                              : Advanced Audio Codec Low Complexity
  53. Codec ID                                 : A_AAC-2
  54. Duration                                 : 1 h 45 min
  55. Bit rate                                 : 110 kb/s
  56. Channel(s)                               : 2 channels
  57. Channel layout                           : L R
  58. Sampling rate                            : 48.0 kHz
  59. Frame rate                               : 46.875 FPS (1024 SPF)
  60. Compression mode                         : Lossy
  61. Delay relative to video                  : 9 ms
  62. Stream size                              : 83.6 MiB (1%)
  63. Title                                    : Director\'s Commentary
  64. Language                                 : English
  65. Default                                  : No
  66. Forced                                   : No

  67. Audio #3
  68. ID                                       : 4
  69. Format                                   : AAC LC
  70. Format/Info                              : Advanced Audio Codec Low Complexity
  71. Codec ID                                 : A_AAC-2
  72. Duration                                 : 1 h 45 min
  73. Bit rate                                 : 107 kb/s
  74. Channel(s)                               : 2 channels
  75. Channel layout                           : L R
  76. Sampling rate                            : 48.0 kHz
  77. Frame rate                               : 46.875 FPS (1024 SPF)
  78. Compression mode                         : Lossy
  79. Delay relative to video                  : 9 ms
  80. Stream size                              : 80.7 MiB (1%)
  81. Title                                    : Commentary with Cowriter-Director-Producer MJ Bassett, Cowriter-Actor Isabel Bassett and Actor Philip Winchester
  82. Language                                 : English
  83. Default                                  : No
  84. Forced                                   : No

  85. Text #1
  86. ID                                       : 5
  87. ID in the original source medium         : 4608 (0x1200)
  88. Format                                   : PGS
  89. Muxing mode                              : zlib
  90. Codec ID                                 : S_HDMV/PGS
  91. Codec ID/Info                            : Picture based subtitle format used on BDs/HD-DVDs
  92. Duration                                 : 1 h 38 min
  93. Bit rate                                 : 38.2 kb/s
  94. Count of elements                        : 3190
  95. Stream size                              : 27.0 MiB (0%)
  96. Language                                 : English
  97. Default                                  : No
  98. Forced                                   : No
  99. Original source medium                   : Blu-ray

  100. Text #2
  101. ID                                       : 6
  102. ID in the original source medium         : 4609 (0x1201)
  103. Format                                   : PGS
  104. Muxing mode                              : zlib
  105. Codec ID                                 : S_HDMV/PGS
  106. Codec ID/Info                            : Picture based subtitle format used on BDs/HD-DVDs
  107. Duration                                 : 1 h 44 min
  108. Bit rate                                 : 28.2 kb/s
  109. Count of elements                        : 2448
  110. Stream size                              : 21.0 MiB (0%)
  111. Language                                 : Spanish
  112. Default                                  : No
  113. Forced                                   : No
  114. Original source medium                   : Blu-ray

  115. Text #3
  116. ID                                       : 7
  117. ID in the original source medium         : 4610 (0x1202)
  118. Format                                   : PGS
  119. Muxing mode                              : zlib
  120. Codec ID                                 : S_HDMV/PGS
  121. Codec ID/Info                            : Picture based subtitle format used on BDs/HD-DVDs
  122. Duration                                 : 1 h 44 min
  123. Bit rate                                 : 27.6 kb/s
  124. Count of elements                        : 2488
  125. Stream size                              : 20.6 MiB (0%)
  126. Language                                 : Portuguese
  127. Default                                  : No
  128. Forced                                   : No
  129. Original source medium                   : Blu-ray

  130. Menu
  131. 00:00:00.000                             : en:Chapter 01
  132. 00:04:05.495                             : en:Chapter 02
  133. 00:10:55.446                             : en:Chapter 03
  134. 00:22:56.125                             : en:Chapter 04
  135. 00:29:20.884                             : en:Chapter 05
  136. 00:35:27.292                             : en:Chapter 06
  137. 00:42:17.785                             : en:Chapter 07
  138. 00:48:10.096                             : en:Chapter 08
  139. 00:55:41.129                             : en:Chapter 09
  140. 00:59:56.510                             : en:Chapter 10
  141. 01:06:03.168                             : en:Chapter 11
  142. 01:11:49.305                             : en:Chapter 12
  143. 01:19:04.406                             : en:Chapter 13
  144. 01:21:53.450                             : en:Chapter 14
  145. 01:29:26.903                             : en:Chapter 15
  146. 01:34:17.527                             : en:Chapter 16
复制代码




                                       
                                       

                                       
                                       
                                       




回复

使用道具 举报

懒得打字嘛,点击右侧快捷回复 【右侧内容,后台自定义】
您需要登录后才可以回帖 登录 | 立即加入

本版积分规则

Archiver|小黑屋| 蓝光电影网 |网站地图

Copyright © 2021 Comsenz Inc. Powered by 蓝光电影网

蓝光电影网

本站内容由用户自主分享和转载自互联网,转载目的在于传递更多信息,并不代表本网赞同其观点和对其真实性负责。

如有侵权、违反国家法律政策行为,请联系我们,我们会第一时间及时清除和处理!

举报反馈邮箱:[email protected]

快速回复 返回顶部 返回列表