找回密码

蓝光电影网

查看: 18|回复: 0

[恐怖] 黑暗与邪恶 The.Dark.and.the.Wicked.2020.1080p.BluRay.x264.DTS-MT 7.54GB

[复制链接]
蓝光币
386
发表于 2020-12-14 08:25:09 | 显示全部楼层 |阅读模式
[img][/img]

◎译  名 黑暗与邪恶/The Dark & The Wicked
◎片  名 The Dark and the Wicked
◎年  代 2020
◎产  地 美国
◎类  别 可骇
◎语  言 英语
◎上映日期 2020-08-28(加拿大奇异电影节) / 2020-11-06(美国)
◎IMDb评分  6.1/10 from 3935 users
◎IMDb链接  https://www.imdb.com/title/tt10229558/
◎豆瓣评分 6.0/10 from 565 users
◎豆瓣链接 https://movie.douban.com/subject/34940663/
◎片  长 95分钟
◎导  演 布莱恩·伯蒂诺 Bryan Bertino
◎编  剧 布莱恩·伯蒂诺 Bryan Bertino
◎主  演 马琳·爱尔兰 Marin Ireland
       迈克尔·阿伯特 Michael Abbott Jr.
       山德·贝克利 Xander Berkeley
       林恩·安德鲁斯 Lynn Andrews
       朱莉·奥利弗-图克斯通 Julie Oliver-Touchstone
       汤姆·诺维茨基 Tom Nowicki
       艾拉·巴伦坦 Ella Ballentine
       梅尔·考恩 Mel Cowan
       明迪·雷蒙德 Mindy Raymond
       克里斯·杜贝克 Chris Doubek
       迈克尔·扎格斯特 Michael Zagst
◎标  签 可骇 | 美国 | 惊悚 | 2020 | 宗教 | 电影 | 剧情 | 犯罪惊悚
◎简  介


  在一座偏僻的农场上,有一位男人渐渐地走向灭亡。他卧病在床,挣扎地吸吐他最初几口气。他的妻子逐步被繁重庞大的忧伤压垮。两人的一双后代Louise(玫琳爱尔兰Marin Ireland饰)和Michael(小迈克尔阿伯特Michael Abbott Jr.饰)回到农场上,要辅佐母亲走过伤痛并和父亲作别。Louise和Michael很快地留意到母亲不单只是被哀痛所困扰。随着姊弟两人的哀痛加重,他们起头感遭到一股黑暗气力,噩梦般的事务相继发生,这故黑暗气力似乎想要吞噬他们一家人。
  1. Video
  2. ID                                       : 1
  3. Format                                   : AVC
  4. Format/Info                              : Advanced Video Codec
  5. Format profile                           : [email protected]
  6. Format settings                          : CABAC / 5 Ref Frames
  7. Format settings, CABAC                   : Yes
  8. Format settings, Reference frames        : 5 frames
  9. Codec ID                                 : V_MPEG4/ISO/AVC
  10. Duration                                 : 1 h 35 min
  11. Bit rate                                 : 9 826 kb/s
  12. Width                                    : 1 920 pixels
  13. Height                                   : 804 pixels
  14. Display aspect ratio                     : 2.40:1
  15. Frame rate mode                          : Constant
  16. Frame rate                               : 23.976 (24000/1001/189150) FPS
  17. Color space                              : YUV
  18. Chroma subsampling                       : 4:2:0
  19. Bit depth                                : 8 bits
  20. Scan type                                : Progressive
  21. Bits/(Pixel*Frame)                       : 0.265
  22. Stream size                              : 6.54 GiB (87%)
  23. Writing library                          : x264 core 157 r2938 2b00a84 [email protected] Mod
  24. Encoding settings                        : cabac=1 / ref=5 / deblock=1:-3:-3 / analyse=0x3:0x133 / me=umh / subme=10 / psy=1 / psy_rd=1.05:0.00 / mixed_ref=1 / me_range=32 / chroma_me=1 / trellis=2 / 8x8dct=1 / cqm=0 / deadzone=21,11 / fast_pskip=0 / chroma_qp_offset=-2 / threads=12 / lookahead_threads=2 / sliced_threads=0 / nr=0 / decimate=0 / interlaced=0 / bluray_compat=0 / constrained_intra=0 / bframes=8 / b_pyramid=2 / b_adapt=2 / b_bias=0 / direct=3 / weightb=1 / open_gop=0 / weightp=2 / keyint=250 / keyint_min=24 / scenecut=40 / intra_refresh=0 / rc_lookahead=250 / rc=crf / mbtree=0 / crf=16.8 / qcomp=0.60 / qpmin=0 / qpmax=69 / qpstep=4 / vbv_maxrate=62500 / vbv_bufsize=78125 / crf_max=0.0 / nal_hrd=none / filler=0 / ip_ratio=1.30 / pb_ratio=1.20 / aq=3:0.80
  25. Language                                 : English
  26. Default                                  : Yes
  27. Forced                                   : No
  28. Color range                              : Limited
  29. Color primaries                          : BT.709
  30. Matrix coefficients                      : BT.709
  31. Audio
  32. ID                                       : 2
  33. Format                                   : DTS
  34. Format/Info                              : Digital Theater Systems
  35. Codec ID                                 : A_DTS
  36. Duration                                 : 1 h 35 min
  37. Bit rate mode                            : Constant
  38. Bit rate                                 : 1 509 kb/s
  39. Channel(s)                               : 6 channels
  40. Channel layout                           : C L R Ls Rs LFE
  41. Sampling rate                            : 48.0 kHz
  42. Frame rate                               : 93.750 FPS (512 SPF)
  43. Bit depth                                : 24 bits
  44. Compression mode                         : Lossy
  45. Stream size                              : 1.00 GiB (13%)
  46. Language                                 : English
  47. Default                                  : Yes
  48. Forced                                   : No
  49. Text
  50. ID                                       : 3
  51. Format                                   : UTF-8
  52. Codec ID                                 : S_TEXT/UTF8
  53. Codec ID/Info                            : UTF-8 Plain Text
  54. Duration                                 : 1 h 33 min
  55. Bit rate                                 : 22 b/s
  56. Count of elements                        : 756
  57. Stream size                              : 15.1 KiB (0%)
  58. Title                                    : SRT
  59. Language                                 : English
  60. Default                                  : Yes
  61. Forced                                   : No
  62. Menu
  63. 00:00:00.000                             : en:Chapter 01
  64. 00:08:50.280                             : en:Chapter 02
  65. 00:19:16.530                             : en:Chapter 03
  66. 00:29:39.027                             : en:Chapter 04
  67. 00:39:14.978                             : en:Chapter 05
  68. 00:50:00.164                             : en:Chapter 06
  69. 01:05:46.860                             : en:Chapter 07
  70. 01:31:09.798                             : en:Chapter 08
复制代码



                                       
                                       

                                       
                                       
                                       




回复

使用道具 举报

懒得打字嘛,点击右侧快捷回复 【右侧内容,后台自定义】
您需要登录后才可以回帖 登录 | 立即加入

本版积分规则

Archiver|小黑屋| 蓝光电影网 |网站地图

Copyright © 2021 Comsenz Inc. Powered by 蓝光电影网

蓝光电影网

本站内容由用户自主分享和转载自互联网,转载目的在于传递更多信息,并不代表本网赞同其观点和对其真实性负责。

如有侵权、违反国家法律政策行为,请联系我们,我们会第一时间及时清除和处理!

举报反馈邮箱:[email protected]

快速回复 返回顶部 返回列表