找回密码

蓝光电影网

查看: 13|回复: 0

[惊悚] 索命咒/咒语 Spell.2020.720p.BluRay.x264.DTS-FGT 4.47GB

[复制链接]
蓝光币
386
发表于 2021-1-12 17:20:37 | 显示全部楼层 |阅读模式
[img][/img]

◎译  名 索命咒/咒语(台)
◎片  名 Spell
◎年  代 2020
◎产  地 美国
◎类  别 惊悚 / 可骇
◎语  言 英语
◎上映日期 2020-10-30(美国收集)
◎IMDb评分  5.4/10 from 2450 users
◎IMDb链接  https://www.imdb.com/title/tt10736580/
◎豆瓣评分 5.9/10 from 726 users
◎豆瓣链接 https://movie.douban.com/subject/34889611/
◎片  长 91分钟
◎导  演 马克·托德莱 Mark Tonderai
◎编  剧 科特·维莫 Kurt Wimmer
◎主  演 欧玛瑞·哈德威克 Omari Hardwick
       洛雷塔·迪瓦恩 Loretta Devine
       洛林·布伦斯 Lorraine Burroughs
       汉娜·格内拉 Hannah Gonera  
       卡利法·波顿 Kalifa Burton
       约翰·比斯利 John Beasley
       图米绍·麻沙 Tumisho Masha
       史蒂夫·穆鲁鲁 Steve Mululu
       彼得·巴特勒 Peter Butler
       安德烈·雅各布斯 Andre Jacobs
       尤尔·马西滕 Yule Masiteng
◎标  签 可骇 | 惊悚 | 巫术 | 美国 | 2020 | 黑人 | 悬疑 | 可骇惊悚悬疑重口血腥
◎简  介


  Marquis(欧玛瑞·哈德威克 饰)带着家人飞往偏僻的阿帕拉契加入父亲的丧礼,不意途中一场狂风雨使得飞机失控。Marquis醒来时受了伤,自己一人困在Ms. Eloise(洛雷塔·迪瓦恩 饰)的阁楼里。Ms.Eloise说自己用了Marquis的血和皮肤建造了巫毒Boogity,并将利用Boogity帮他治疗康复。求救无门的Marquis只能想尽法子以智取胜,试图下个月圆之夜之前逃离Ms. Eloise的巫术并拯救自己的家人免于这场邪恶的祭典。
  1. Video
  2. ID                                       : 1
  3. Format                                   : AVC
  4. Format/Info                              : Advanced Video Codec
  5. Format profile                           : [email protected]
  6. Format settings                          : CABAC / 4 Ref Frames
  7. Format settings, CABAC                   : Yes
  8. Format settings, Reference frames        : 4 frames
  9. Codec ID                                 : V_MPEG4/ISO/AVC
  10. Duration                                 : 1 h 31 min
  11. Bit rate                                 : 5 500 kb/s
  12. Width                                    : 1 280 pixels
  13. Height                                   : 536 pixels
  14. Display aspect ratio                     : 2.40:1
  15. Frame rate mode                          : Constant
  16. Frame rate                               : 23.976 (24000/1001/189150) FPS
  17. Color space                              : YUV
  18. Chroma subsampling                       : 4:2:0
  19. Bit depth                                : 8 bits
  20. Scan type                                : Progressive
  21. Bits/(Pixel*Frame)                       : 0.334
  22. Stream size                              : 3.50 GiB (78%)
  23. Writing library                          : x264 core 148 r2748 97eaef2
  24. Encoding settings                        : cabac=1 / ref=4 / deblock=1:-2:-2 / analyse=0x3:0x113 / me=umh / subme=9 / psy=1 / psy_rd=1.00:0.15 / mixed_ref=1 / me_range=16 / chroma_me=1 / trellis=2 / 8x8dct=1 / cqm=0 / deadzone=21,11 / fast_pskip=1 / chroma_qp_offset=-3 / threads=24 / lookahead_threads=3 / sliced_threads=0 / nr=0 / decimate=1 / interlaced=0 / bluray_compat=0 / constrained_intra=0 / bframes=3 / b_pyramid=2 / b_adapt=1 / b_bias=0 / direct=3 / weightb=1 / open_gop=0 / weightp=2 / keyint=250 / keyint_min=25 / scenecut=40 / intra_refresh=0 / rc_lookahead=50 / rc=2pass / mbtree=1 / bitrate=5500 / ratetol=1.0 / qcomp=0.60 / qpmin=0 / qpmax=69 / qpstep=4 / cplxblur=20.0 / qblur=0.5 / vbv_maxrate=31250 / vbv_bufsize=31250 / nal_hrd=none / filler=0 / ip_ratio=1.40 / aq=1:1.00
  25. Default                                  : Yes
  26. Forced                                   : No
  27. Audio
  28. ID                                       : 2
  29. Format                                   : DTS
  30. Format/Info                              : Digital Theater Systems
  31. Codec ID                                 : A_DTS
  32. Duration                                 : 1 h 31 min
  33. Bit rate mode                            : Constant
  34. Bit rate                                 : 1 509 kb/s
  35. Channel(s)                               : 6 channels
  36. Channel layout                           : C L R Ls Rs LFE
  37. Sampling rate                            : 48.0 kHz
  38. Frame rate                               : 93.750 FPS (512 SPF)
  39. Bit depth                                : 24 bits
  40. Compression mode                         : Lossy
  41. Stream size                              : 987 MiB (22%)
  42. Title                                    : DTS 5.1
  43. Language                                 : English
  44. Default                                  : Yes
  45. Forced                                   : No
  46. Text
  47. ID                                       : 3
  48. Format                                   : UTF-8
  49. Codec ID                                 : S_TEXT/UTF8
  50. Codec ID/Info                            : UTF-8 Plain Text
  51. Duration                                 : 1 h 23 min
  52. Bit rate                                 : 41 b/s
  53. Count of elements                        : 747
  54. Stream size                              : 25.4 KiB (0%)
  55. Title                                    : English-SRT
  56. Language                                 : English
  57. Default                                  : Yes
  58. Forced                                   : No
  59. Menu
  60. 00:00:00.000                             : en:Chapter 01
  61. 00:06:27.095                             : en:Chapter 02
  62. 00:16:16.850                             : en:Chapter 03
  63. 00:25:30.779                             : en:Chapter 04
  64. 00:33:16.869                             : en:Chapter 05
  65. 00:41:28.777                             : en:Chapter 06
  66. 00:49:07.402                             : en:Chapter 07
  67. 00:58:32.550                             : en:Chapter 08
  68. 01:05:45.983                             : en:Chapter 09
  69. 01:11:00.214                             : en:Chapter 10
  70. 01:16:46.810                             : en:Chapter 11
  71. 01:24:28.730                             : en:Chapter 12
复制代码



                                       
                                       

                                       
                                       
                                       




回复

使用道具 举报

懒得打字嘛,点击右侧快捷回复 【右侧内容,后台自定义】
您需要登录后才可以回帖 登录 | 立即加入

本版积分规则

Archiver|小黑屋| 蓝光电影网 |网站地图

Copyright © 2021 Comsenz Inc. Powered by 蓝光电影网

蓝光电影网

本站内容由用户自主分享和转载自互联网,转载目的在于传递更多信息,并不代表本网赞同其观点和对其真实性负责。

如有侵权、违反国家法律政策行为,请联系我们,我们会第一时间及时清除和处理!

举报反馈邮箱:[email protected]

快速回复 返回顶部 返回列表