找回密码

蓝光电影网

查看: 33|回复: 0

[惊悚] 祖母之屋/奶奶的房子 Grandmothers.House.1988.720p.BluRay.x264-GAZER 5.45GB

[复制链接]
蓝光币
623
发表于 2021-1-12 10:22:18 | 显示全部楼层 |阅读模式
[img][/img]

◎译  名 祖母之屋/奶奶的屋子
◎片  名 Grandmother's House
◎年  代 1989
◎产  地 美国
◎类  别 惊悚 / 可骇
◎语  言 英语
◎上映日期 1989
◎IMDb评分  5.3/10 from 860 users
◎IMDb链接  https://www.imdb.com/title/tt0097455/
◎豆瓣评分 /10 from 0 users
◎豆瓣链接 https://movie.douban.com/subject/5115248/
◎片  长 90分钟
◎主  演 兰-莱瑟 Len Lesser
       布琳克·史蒂文斯 Brinke Stevens
       Tim Trella
       玛丽·皮奇 Mary Peach
       George E. Mahlberg
       Joan-Carol Bensen
       尼科·马斯托拉基斯 Nico Mastorakis
       Kim Valentine
◎标  签 惊悚 | 可骇 | 美国电影 | 美国 | 国外电影 | 1988 | x264 | tehPARADOX
◎简  介


  暂无相关剧情先容
  1. Video
  2. ID                                       : 1
  3. Format                                   : AVC
  4. Format/Info                              : Advanced Video Codec
  5. Format profile                           : [email protected]
  6. Format settings                          : CABAC / 9 Ref Frames
  7. Format settings, CABAC                   : Yes
  8. Format settings, Reference frames        : 9 frames
  9. Codec ID                                 : V_MPEG4/ISO/AVC
  10. Duration                                 : 1 h 29 min
  11. Bit rate                                 : 8 058 kb/s
  12. Width                                    : 1 280 pixels
  13. Height                                   : 690 pixels
  14. Display aspect ratio                     : 1.85:1
  15. Frame rate mode                          : Constant
  16. Frame rate                               : 23.976 (24000/1001/189150) FPS
  17. Color space                              : YUV
  18. Chroma subsampling                       : 4:2:0
  19. Bit depth                                : 8 bits
  20. Scan type                                : Progressive
  21. Bits/(Pixel*Frame)                       : 0.381
  22. Stream size                              : 5.03 GiB (92%)
  23. Writing library                          : x264 core 161 r3027 4121277
  24. Encoding settings                        : cabac=1 / ref=9 / deblock=1:-3:-3 / analyse=0x3:0x133 / me=umh / subme=10 / psy=1 / psy_rd=1.20:0.00 / mixed_ref=1 / me_range=24 / chroma_me=1 / trellis=2 / 8x8dct=1 / cqm=0 / deadzone=21,11 / fast_pskip=0 / chroma_qp_offset=-2 / threads=6 / lookahead_threads=1 / sliced_threads=0 / nr=0 / decimate=0 / interlaced=0 / bluray_compat=0 / constrained_intra=0 / bframes=8 / b_pyramid=2 / b_adapt=2 / b_bias=0 / direct=3 / weightb=1 / open_gop=0 / weightp=2 / keyint=250 / keyint_min=23 / scenecut=40 / intra_refresh=0 / rc_lookahead=60 / rc=crf / mbtree=1 / crf=20.0 / qcomp=0.60 / qpmin=0 / qpmax=69 / qpstep=4 / ip_ratio=1.40 / aq=3:0.90
  25. Default                                  : Yes
  26. Forced                                   : No
  27. Color range                              : Limited
  28. Matrix coefficients                      : BT.709

  29. Audio
  30. ID                                       : 2
  31. Format                                   : AC-3
  32. Format/Info                              : Audio Coding 3
  33. Commercial name                          : Dolby Digital
  34. Codec ID                                 : A_AC3
  35. Duration                                 : 1 h 29 min
  36. Bit rate mode                            : Constant
  37. Bit rate                                 : 640 kb/s
  38. Channel(s)                               : 6 channels
  39. Channel layout                           : L R C LFE Ls Rs
  40. Sampling rate                            : 48.0 kHz
  41. Frame rate                               : 31.250 FPS (1536 SPF)
  42. Compression mode                         : Lossy
  43. Stream size                              : 409 MiB (7%)
  44. Language                                 : English
  45. Service kind                             : Complete Main
  46. Default                                  : Yes
  47. Forced                                   : No

  48. Text
  49. ID                                       : 3
  50. Format                                   : PGS
  51. Muxing mode                              : zlib
  52. Codec ID                                 : S_HDMV/PGS
  53. Codec ID/Info                            : Picture based subtitle format used on BDs/HD-DVDs
  54. Duration                                 : 1 h 25 min
  55. Bit rate                                 : 34.0 kb/s
  56. Count of elements                        : 2100
  57. Stream size                              : 20.7 MiB (0%)
  58. Title                                    : SDH
  59. Language                                 : English
  60. Default                                  : No
  61. Forced                                   : No

  62. Menu
  63. 00:00:00.000                             : en:Chapter 01
  64. 00:05:36.378                             : en:Chapter 02
  65. 00:13:42.947                             : en:Chapter 03
  66. 00:22:10.412                             : en:Chapter 04
  67. 00:30:05.721                             : en:Chapter 05
  68. 00:38:47.909                             : en:Chapter 06
  69. 00:48:12.556                             : en:Chapter 07
  70. 00:57:29.321                             : en:Chapter 08
  71. 01:05:11.574                             : en:Chapter 09
  72. 01:11:27.575                             : en:Chapter 10
  73. 01:17:13.587                             : en:Chapter 11
  74. 01:23:10.861                             : en:Chapter 12
复制代码



                                       
                                       

                                       
                                       
                                       




回复

使用道具 举报

懒得打字嘛,点击右侧快捷回复 【右侧内容,后台自定义】
您需要登录后才可以回帖 登录 | 立即加入

本版积分规则

Archiver|小黑屋| 蓝光电影网 |网站地图

Copyright © 2021 Comsenz Inc. Powered by 蓝光电影网

蓝光电影网

本站内容由用户自主分享和转载自互联网,转载目的在于传递更多信息,并不代表本网赞同其观点和对其真实性负责。

如有侵权、违反国家法律政策行为,请联系我们,我们会第一时间及时清除和处理!

举报反馈邮箱:[email protected]

快速回复 返回顶部 返回列表