找回密码

蓝光电影网

查看: 14|回复: 0

[动作] 怒战狂心 Furious.2017.1080p.BluRay.x264-CAPRiCORN 10.93GB

[复制链接]
蓝光币
382
发表于 2021-5-19 09:10:54 | 显示全部楼层 |阅读模式
[img][/img]

◎译  名 怒战狂心/Furious/Legend of Kolovrat/Legenda o Kolovrate/Легенда о Коловрате/怒战全国(台)/科洛夫拉特传奇
◎片  名 Легенда о Коловрате
◎年  代 2017
◎产  地 俄罗斯
◎类  别 行动 / 历史 / 战争 / 冒险
◎语  言 俄语,塔塔尔语
◎上映日期 2017-11-30(俄罗斯)
◎豆瓣评分 5.6/10 from 1735 users
◎豆瓣链接 https://movie.douban.com/subject/26988250/
◎片  长 120分钟
◎导  演 贾尼克·法伊济耶夫 Dzhanik Faiziyev / 伊凡·舒尔霍夫茨基 Ivan Shurkhovetskiy
◎编  剧 鲍勃·布克霍尔兹 Bob Buchholz
◎主  演 阿列克谢·谢列布里亚科夫 Aleksey Serebryakov
       亚历山大·伊林 Aleksandr Ilin
       蒂莫菲·特里布纳采夫 Timofey Tribuntsev
       尤里亚·凯林娜 Yuliya Khlynina
       伊戈尔·萨沃金 Igor Savochkin
       维克托·普罗斯库林 Viktor Proskurin
       谢尔盖·科尔塔科夫 Sergei Koltakov
       玛尔塔·蒂莫菲娃 Marta Timofeeva
       安德烈·伯科夫斯基 Andrey Burkovskiy
       波琳娜·切尔尼绍娃 Polina Chernyshova
◎标  签 俄罗斯 | 战争 | 俄罗斯电影 | 历史 | 怒战狂心 | 行动 | 电影 | 2017
◎简  介


  13世纪,成吉思汗之孙拔都汗率领数千勇士欲征服欧洲大片国土。正当无敌的蒙古鞑靼雄师一路横扫之时,却碰到了梁赞公国一位名叫叶夫帕季·科洛夫拉特的工长,他率领17位勇士搏命抵抗内奸对古罗斯的入侵和统治。
  
  本片故事源自于实在历史事务,号称俄罗斯版的“斯巴达300勇士”。
  1. Video
  2. ID                                       : 1
  3. Format                                   : AVC
  4. Format/Info                              : Advanced Video Codec
  5. Format profile                           : [email protected]
  6. Format settings                          : CABAC / 5 Ref Frames
  7. Format settings, CABAC                   : Yes
  8. Format settings, Reference frames        : 5 frames
  9. Codec ID                                 : V_MPEG4/ISO/AVC
  10. Duration                                 : 1 h 59 min
  11. Bit rate                                 : 10.0 Mb/s
  12. Width                                    : 1 920 pixels
  13. Height                                   : 808 pixels
  14. Display aspect ratio                     : 2.40:1
  15. Frame rate mode                          : Constant
  16. Frame rate                               : 24.000 FPS
  17. Color space                              : YUV
  18. Chroma subsampling                       : 4:2:0
  19. Bit depth                                : 8 bits
  20. Scan type                                : Progressive
  21. Bits/(Pixel*Frame)                       : 0.269
  22. Stream size                              : 8.40 GiB (77%)
  23. Writing library                          : x264 core 157 r2970 5493be8
  24. Encoding settings                        : cabac=1 / ref=5 / deblock=1:0:0 / analyse=0x3:0x113 / me=umh / subme=7 / psy=1 / psy_rd=1.00:0.00 / mixed_ref=1 / me_range=16 / chroma_me=1 / trellis=1 / 8x8dct=1 / cqm=0 / deadzone=21,11 / fast_pskip=0 / chroma_qp_offset=-2 / threads=12 / lookahead_threads=2 / sliced_threads=0 / nr=0 / decimate=1 / interlaced=0 / bluray_compat=0 / constrained_intra=0 / bframes=3 / b_pyramid=2 / b_adapt=1 / b_bias=0 / direct=3 / weightb=1 / open_gop=0 / weightp=2 / keyint=240 / keyint_min=24 / scenecut=40 / intra_refresh=0 / rc_lookahead=50 / rc=2pass / mbtree=1 / bitrate=10027 / ratetol=1.0 / qcomp=0.60 / qpmin=0 / qpmax=69 / qpstep=4 / cplxblur=20.0 / qblur=0.5 / ip_ratio=1.40 / aq=1:1.00
  25. Language                                 : English
  26. Default                                  : Yes
  27. Forced                                   : No
  28. Audio #1
  29. ID                                       : 2
  30. Format                                   : DTS
  31. Format/Info                              : Digital Theater Systems
  32. Codec ID                                 : A_DTS
  33. Duration                                 : 1 h 59 min
  34. Bit rate mode                            : Constant
  35. Bit rate                                 : 1 509 kb/s
  36. Channel(s)                               : 6 channels
  37. Channel layout                           : C L R Ls Rs LFE
  38. Sampling rate                            : 48.0 kHz
  39. Frame rate                               : 93.750 FPS (512 SPF)
  40. Bit depth                                : 24 bits
  41. Compression mode                         : Lossy
  42. Stream size                              : 1.26 GiB (12%)
  43. Language                                 : Russian
  44. Default                                  : Yes
  45. Forced                                   : No
  46. Audio #2
  47. ID                                       : 3
  48. Format                                   : DTS
  49. Format/Info                              : Digital Theater Systems
  50. Codec ID                                 : A_DTS
  51. Duration                                 : 1 h 59 min
  52. Bit rate mode                            : Constant
  53. Bit rate                                 : 1 509 kb/s
  54. Channel(s)                               : 6 channels
  55. Channel layout                           : C L R Ls Rs LFE
  56. Sampling rate                            : 48.0 kHz
  57. Frame rate                               : 93.750 FPS (512 SPF)
  58. Bit depth                                : 24 bits
  59. Compression mode                         : Lossy
  60. Stream size                              : 1.26 GiB (12%)
  61. Language                                 : English
  62. Default                                  : No
  63. Forced                                   : No
  64. Text
  65. ID                                       : 4
  66. Format                                   : UTF-8
  67. Codec ID                                 : S_TEXT/UTF8
  68. Codec ID/Info                            : UTF-8 Plain Text
  69. Duration                                 : 1 h 51 min
  70. Bit rate                                 : 30 b/s
  71. Count of elements                        : 765
  72. Stream size                              : 25.3 KiB (0%)
  73. Language                                 : English
  74. Default                                  : Yes
  75. Forced                                   : Yes
  76. Menu
  77. 00:00:00.000                             : en:00:00:00.000
  78. 00:08:29.875                             : en:00:08:29.875
  79. 00:17:16.000                             : en:00:17:16.000
  80. 00:27:27.292                             : en:00:27:27.292
  81. 00:38:10.125                             : en:00:38:10.125
  82. 00:45:28.917                             : en:00:45:28.917
  83. 00:55:24.542                             : en:00:55:24.542
  84. 01:04:33.250                             : en:01:04:33.250
  85. 01:13:32.125                             : en:01:13:32.125
  86. 01:24:51.833                             : en:01:24:51.833
  87. 01:31:42.417                             : en:01:31:42.417
  88. 01:40:51.000                             : en:01:40:51.000
  89. 01:52:43.917                             : en:01:52:43.917
复制代码




                                       
                                       

                                       
                                       
                                       




回复

使用道具 举报

懒得打字嘛,点击右侧快捷回复 【右侧内容,后台自定义】
您需要登录后才可以回帖 登录 | 立即加入

本版积分规则

Archiver|小黑屋| 蓝光电影网 |网站地图

Copyright © 2021 Comsenz Inc. Powered by 蓝光电影网

蓝光电影网

本站内容由用户自主分享和转载自互联网,转载目的在于传递更多信息,并不代表本网赞同其观点和对其真实性负责。

如有侵权、违反国家法律政策行为,请联系我们,我们会第一时间及时清除和处理!

举报反馈邮箱:[email protected]

快速回复 返回顶部 返回列表