找回密码

蓝光电影网

查看: 16|回复: 0

[动作] 星际传奇 Pitch.Black.2000.REMASTERED.THEATRICAL.720p.BluRay.x264-EiDER 5.94GB

[复制链接]
蓝光币
386
发表于 2020-8-20 17:17:31 | 显示全部楼层 |阅读模式


◎译  名 星际传奇 / The Chronicles of Riddick: Pitch Black / 黝黑一片 / 黑煞天魔
◎片  名 Pitch Black
◎年  代 2000
◎产  地 美国
◎类  别 行动 / 科幻 / 惊悚
◎语  言 英语 / 阿拉伯语
◎上映日期 2000-02-18
◎IMDb评分  7.1/10 from 220944 users
◎IMDb链接  https://www.imdb.com/title/tt0134847
◎豆瓣评分 7.2/10 from 24245 users
◎豆瓣链接 https://movie.douban.com/subject/1296459/
◎片  长 109 分钟
◎导  演 David Twohy
◎编  剧 Jim Wheat / Ken Wheat / David Twohy
◎主  演 Vin Diesel
       Radha Mitchell
       Cole Hauser
       Keith David
       Lewis Fitz-Gerald

◎标  签 科幻 | 美国 | 行动 | 惊悚 | 文·迪塞尔 | 星际传奇 | 2000 | 美国电影
◎简  介

  
  在浩大的宇宙间,一艘名为猎人号的商用飞船正停止着冗长的旅程。船上搭载着40位乘客,其中包括重刑罪犯理查·雷迪克(Vin Diesel 饰)。当行驶到丹吉尔星系时,突如其来的变乱令飞船蒙受重创,空气飞速泄露,终极迫降到一颗酷热而荒凉的星球上。着陆时的庞大冲击力几近让飞船支离破裂,死伤者众多。幸存者们来到这片陌生的河山,严酷的自然情况考验着每一小我,分歧民族分歧职业的他们此时必须捐弃前嫌,结合起来。他们不但要与天空中三个太阳作抗争,还要时辰提防隐藏在黑黑暗的危险……
  本片荣获2001年澳大利亚摄影师协会年度最好摄影师和金三角架奖。
  1. Video
  2. ID                                       : 1
  3. Format                                   : AVC
  4. Format/Info                              : Advanced Video Codec
  5. Format profile                           : [email protected]
  6. Format settings                          : CABAC / 11 Ref Frames
  7. Format settings, CABAC                   : Yes
  8. Format settings, Reference frames        : 11 frames
  9. Codec ID                                 : V_MPEG4/ISO/AVC
  10. Duration                                 : 1 h 48 min
  11. Bit rate                                 : 7 217 kb/s
  12. Width                                    : 1 280 pixels
  13. Height                                   : 546 pixels
  14. Display aspect ratio                     : 2.35:1
  15. Frame rate mode                          : Constant
  16. Frame rate                               : 24.000 FPS
  17. Color space                              : YUV
  18. Chroma subsampling                       : 4:2:0
  19. Bit depth                                : 8 bits
  20. Scan type                                : Progressive
  21. Bits/(Pixel*Frame)                       : 0.430
  22. Stream size                              : 5.45 GiB (92%)
  23. Writing library                          : x264 core 161 r3018 db0d417
  24. Encoding settings                        : cabac=1 / ref=11 / deblock=1:-3:-3 / analyse=0x3:0x133 / me=umh / subme=10 / psy=1 / psy_rd=1.05:0.00 / mixed_ref=1 / me_range=24 / chroma_me=1 / trellis=2 / 8x8dct=1 / cqm=0 / deadzone=21,11 / fast_pskip=0 / chroma_qp_offset=-2 / threads=17 / lookahead_threads=4 / sliced_threads=0 / nr=0 / decimate=0 / interlaced=0 / bluray_compat=0 / constrained_intra=0 / bframes=10 / b_pyramid=2 / b_adapt=2 / b_bias=0 / direct=3 / weightb=1 / open_gop=0 / weightp=2 / keyint=250 / keyint_min=24 / scenecut=40 / intra_refresh=0 / rc=crf / mbtree=0 / crf=17.6 / qcomp=0.60 / qpmin=0 / qpmax=69 / qpstep=4 / ip_ratio=1.30 / pb_ratio=1.20 / aq=3:0.70
  25. Default                                  : Yes
  26. Forced                                   : No
  27. Color range                              : Limited
  28. Matrix coefficients                      : BT.709

  29. Audio
  30. ID                                       : 2
  31. Format                                   : AC-3
  32. Format/Info                              : Audio Coding 3
  33. Commercial name                          : Dolby Digital
  34. Codec ID                                 : A_AC3
  35. Duration                                 : 1 h 48 min
  36. Bit rate mode                            : Constant
  37. Bit rate                                 : 640 kb/s
  38. Channel(s)                               : 6 channels
  39. Channel layout                           : L R C LFE Ls Rs
  40. Sampling rate                            : 48.0 kHz
  41. Frame rate                               : 31.250 FPS (1536 SPF)
  42. Compression mode                         : Lossy
  43. Stream size                              : 495 MiB (8%)
  44. Title                                    : AC-3 5.1
  45. Language                                 : English
  46. Service kind                             : Complete Main
  47. Default                                  : Yes
  48. Forced                                   : No

  49. Text #1
  50. ID                                       : 3
  51. Format                                   : UTF-8
  52. Codec ID                                 : S_TEXT/UTF8
  53. Codec ID/Info                            : UTF-8 Plain Text
  54. Duration                                 : 1 h 40 min
  55. Bit rate                                 : 36 b/s
  56. Count of elements                        : 897
  57. Stream size                              : 27.0 KiB (0%)
  58. Title                                    : Stripped SRT
  59. Language                                 : English
  60. Default                                  : No
  61. Forced                                   : No

  62. Text #2
  63. ID                                       : 4
  64. Format                                   : UTF-8
  65. Codec ID                                 : S_TEXT/UTF8
  66. Codec ID/Info                            : UTF-8 Plain Text
  67. Duration                                 : 1 h 40 min
  68. Bit rate                                 : 40 b/s
  69. Count of elements                        : 1070
  70. Stream size                              : 29.8 KiB (0%)
  71. Title                                    : SDH SRT
  72. Language                                 : English
  73. Default                                  : No
  74. Forced                                   : No

  75. Text #3
  76. ID                                       : 5
  77. Format                                   : PGS
  78. Muxing mode                              : zlib
  79. Codec ID                                 : S_HDMV/PGS
  80. Codec ID/Info                            : Picture based subtitle format used on BDs/HD-DVDs
  81. Duration                                 : 1 h 40 min
  82. Bit rate                                 : 27.1 kb/s
  83. Count of elements                        : 2140
  84. Stream size                              : 19.5 MiB (0%)
  85. Title                                    : English SDH
  86. Language                                 : English
  87. Default                                  : No
  88. Forced                                   : No

  89. Menu
  90. 00:00:00.000                             : en:Chapter 01
  91. 00:11:13.208                             : en:Chapter 02
  92. 00:18:01.542                             : en:Chapter 03
  93. 00:26:38.625                             : en:Chapter 04
  94. 00:35:36.375                             : en:Chapter 05
  95. 00:44:28.583                             : en:Chapter 06
  96. 00:52:34.083                             : en:Chapter 07
  97. 00:58:59.375                             : en:Chapter 08
  98. 01:08:38.583                             : en:Chapter 09
  99. 01:15:36.583                             : en:Chapter 10
  100. 01:29:57.000                             : en:Chapter 11
  101. 01:35:38.167                             : en:Chapter 12
复制代码




                                       
                                       

                                       
                                       
                                       




回复

使用道具 举报

懒得打字嘛,点击右侧快捷回复 【右侧内容,后台自定义】
您需要登录后才可以回帖 登录 | 立即加入

本版积分规则

Archiver|小黑屋| 蓝光电影网 |网站地图

Copyright © 2021 Comsenz Inc. Powered by 蓝光电影网

蓝光电影网

本站内容由用户自主分享和转载自互联网,转载目的在于传递更多信息,并不代表本网赞同其观点和对其真实性负责。

如有侵权、违反国家法律政策行为,请联系我们,我们会第一时间及时清除和处理!

举报反馈邮箱:[email protected]

快速回复 返回顶部 返回列表