找回密码

蓝光电影网

查看: 6|回复: 0

[恐怖] 鬼屋魔咒/鬼哭神嚎5 The.Amityville.Curse.1990.1080p.BluRay.x264.DTS-FGT 8.27GB

[复制链接]
蓝光币
382
发表于 2020-12-7 08:45:38 | 显示全部楼层 |阅读模式
[img][/img]

◎译  名 鬼屋魔咒/鬼哭神嚎5
◎片  名 The Amityville Curse
◎年  代 1990
◎产  地 加拿大,美国
◎类  别 可骇
◎语  言 英语
◎上映日期 1990-05-07(美国)
◎IMDb评分  2.9/10 from 1773 users
◎IMDb链接  https://www.imdb.com/title/tt0099030/
◎豆瓣评分 /10 from 0 users
◎豆瓣链接 https://movie.douban.com/subject/1301933/
◎片  长 USA: 91 分钟
◎编  剧 Hans Holzer
◎主  演 扬·鲁布斯 Jan Rubes
       Anthony Dean Rubes
       Ali Giron
       Norris Domingue
       马克·卡马乔 Mark Camacho
       卡桑德拉·加瓦 Cassandra Gava
       金·寇兹 Kim Coates
       Richard Tassé
       斯科特·雅菲 Scott Yaphe
◎标  签 可骇 | 美国电影 | 美国 | 灵异 | Horror&Thriller | Canada | 1990
◎简  介


  Five people spend the night in an abandoned house, the Amityville haunted house, and soon find themselves terrorized by assorted ghosts, venomous insects and ghostly apparitions.
  1. Video
  2. ID                                       : 1
  3. Format                                   : AVC
  4. Format/Info                              : Advanced Video Codec
  5. Format profile                           : [email protected]
  6. Format settings                          : CABAC / 4 Ref Frames
  7. Format settings, CABAC                   : Yes
  8. Format settings, Reference frames        : 4 frames
  9. Codec ID                                 : V_MPEG4/ISO/AVC
  10. Duration                                 : 1 h 31 min
  11. Bit rate                                 : 11.5 Mb/s
  12. Width                                    : 1 920 pixels
  13. Height                                   : 1 080 pixels
  14. Display aspect ratio                     : 16:9
  15. Frame rate mode                          : Constant
  16. Frame rate                               : 23.976 (24000/1001/189150) FPS
  17. Color space                              : YUV
  18. Chroma subsampling                       : 4:2:0
  19. Bit depth                                : 8 bits
  20. Scan type                                : Progressive
  21. Bits/(Pixel*Frame)                       : 0.231
  22. Stream size                              : 7.31 GiB (88%)
  23. Title                                    : The.Amityville.Curse.1990.1080p.BluRay.x264.DTS-FGT
  24. Writing library                          : x264 core 148 r2795M aaa9aa8
  25. Encoding settings                        : cabac=1 / ref=4 / deblock=1:-2:-2 / analyse=0x3:0x113 / me=umh / subme=9 / psy=1 / psy_rd=1.00:0.15 / mixed_ref=1 / me_range=16 / chroma_me=1 / trellis=2 / 8x8dct=1 / cqm=0 / deadzone=21,11 / fast_pskip=1 / chroma_qp_offset=-3 / threads=24 / lookahead_threads=3 / sliced_threads=0 / nr=0 / decimate=1 / interlaced=0 / bluray_compat=0 / constrained_intra=0 / bframes=3 / b_pyramid=2 / b_adapt=1 / b_bias=0 / direct=3 / weightb=1 / open_gop=0 / weightp=2 / keyint=250 / keyint_min=25 / scenecut=40 / intra_refresh=0 / rc_lookahead=50 / rc=2pass / mbtree=1 / bitrate=11500 / ratetol=1.0 / qcomp=0.60 / qpmin=0 / qpmax=69 / qpstep=4 / cplxblur=20.0 / qblur=0.5 / vbv_maxrate=31250 / vbv_bufsize=31250 / nal_hrd=none / filler=0 / ip_ratio=1.40 / aq=1:1.00
  26. Language                                 : English
  27. Default                                  : Yes
  28. Forced                                   : No
  29. Audio
  30. ID                                       : 2
  31. ID in the original source medium         : 4353 (0x1101)
  32. Format                                   : DTS
  33. Format/Info                              : Digital Theater Systems
  34. Codec ID                                 : A_DTS
  35. Duration                                 : 1 h 31 min
  36. Bit rate mode                            : Constant
  37. Bit rate                                 : 1 509 kb/s
  38. Channel(s)                               : 2 channels
  39. Channel layout                           : L R
  40. Sampling rate                            : 48.0 kHz
  41. Frame rate                               : 93.750 FPS (512 SPF)
  42. Bit depth                                : 16 bits
  43. Compression mode                         : Lossy
  44. Stream size                              : 983 MiB (12%)
  45. Title                                    : The.Amityville.Curse.1990.1080p.BluRay.x264.DTS-FGT
  46. Language                                 : English
  47. Default                                  : No
  48. Forced                                   : No
  49. Original source medium                   : Blu-ray
  50. Text
  51. ID                                       : 3
  52. Format                                   : UTF-8
  53. Codec ID                                 : S_TEXT/UTF8
  54. Codec ID/Info                            : UTF-8 Plain Text
  55. Duration                                 : 1 h 27 min
  56. Bit rate                                 : 38 b/s
  57. Count of elements                        : 921
  58. Stream size                              : 24.4 KiB (0%)
  59. Title                                    : The.Amityville.Curse.1990.1080p.BluRay.x264.DTS-FGT
  60. Language                                 : English
  61. Default                                  : Yes
  62. Forced                                   : No
  63. Menu
  64. 00:00:00.000                             : en:Chapter 01
  65. 00:15:12.828                             : en:Chapter 02
  66. 00:26:59.868                             : en:Chapter 03
  67. 00:49:17.871                             : en:Chapter 04
  68. 01:04:05.967                             : en:Chapter 05
  69. 01:17:08.498                             : en:Chapter 06
复制代码



                                       
                                       

                                       
                                       
                                       




回复

使用道具 举报

懒得打字嘛,点击右侧快捷回复 【右侧内容,后台自定义】
您需要登录后才可以回帖 登录 | 立即加入

本版积分规则

Archiver|小黑屋| 蓝光电影网 |网站地图

Copyright © 2021 Comsenz Inc. Powered by 蓝光电影网

蓝光电影网

本站内容由用户自主分享和转载自互联网,转载目的在于传递更多信息,并不代表本网赞同其观点和对其真实性负责。

如有侵权、违反国家法律政策行为,请联系我们,我们会第一时间及时清除和处理!

举报反馈邮箱:[email protected]

快速回复 返回顶部 返回列表