找回密码

蓝光电影网

查看: 13|回复: 0

[动作] 晴空战士 Sky.Blue.2003.KOREAN.DC.1080p.BluRay.x264.DD5.1-END 10.22GB

[复制链接]
蓝光币
382
发表于 2021-5-19 09:02:55 | 显示全部楼层 |阅读模式
[img][/img]

◎译  名 晴空战士/Sky Blue/Wonderful Days/为她翻开天空
◎片  名 ??? ???
◎年  代 2003
◎产  地 韩国,美国
◎类  别 行动 / 科幻 / 动画 / 奇异
◎语  言 韩语,英语
◎上映日期 2003-07-17(韩国)
◎豆瓣评分 6.7/10 from 1622 users
◎豆瓣链接 https://movie.douban.com/subject/1305708/
◎片  长 87分钟
◎导  演 Moon-saeng Kim
◎编  剧 Moon-saeng Kim / Jay Lender / 朴宣旼 Sunmin Park
◎主  演 刘智泰 Ji-tae Yu
       Marc Worden
       柯克·桑顿 Kirk Thornton
       Bob Papenbrook
       凯茜·卡瓦蒂妮 Cathy Cavadini
       大卫·诺顿 David Naughton
◎标  签 动画 | 韩国 | 科幻 | 韩国动画 | 晴空战士 | 韩国电影 | 2003 | 动漫
◎简  介


  大地在净化和情况灾难的两重冲击下,已经处在解体的边沿,为了保存,人们缔造了一个与世隔断的都会,叫做ECOBAN(这个名字由ecology和ban合并起来,意义是“扑灭生态”),而这个都会完全靠大地的净化物苟延残喘。
  
  可是,只要少少的经过挑选的人材可以进入这个隔断的都会,这些人成为城市中的特权阶级,至于更多的其他人,则无助地被抛弃,暴尸于无尽的荒原中。
  
  ECOBAN的能量之源就是净化物,生活在ECOBAN的人衣食不缺,而在另一个叫MARR的地方生活的难民却食不果腹。虽然如此,ECOBAN的人还想消灭MARR的居民来获得更多的净化物。
  
  过了一段日子,忽然有报道说这片地盘的净化水平允鄙人降,因此有很多人起头希望全部大地又能规复活机。
  
  抵触发生了,由于有一些政府官员决议继续净化地盘,这样的话他们就能连结住在都会里面的各种特权。
  
  这时,有一个入侵者偷偷进入了ECOBAN,而且疯狂地作案,当地的差人完全莫衷一是。JAY是警方的头子之一,她疲于奔命地追踪着入侵者,却发现这小我是自己的初爱情人。在工作义务和后代私情之间,JAY到底应当怎样取舍?同时,平安部分的领袖人物SIMON也深深爱着JAY,当他也发现了SHUA的存在时,又会发生什么?
  
  那是生活在情况净化的黑云之下的一切人的希望。
  
  那也是被各种压力逼得喘不外气来的人们的希望。
  
  那,也是我们的豪杰给他深爱的人的许诺。
  1. Video
  2. ID                                       : 1
  3. Format                                   : AVC
  4. Format/Info                              : Advanced Video Codec
  5. Format profile                           : [email protected]
  6. Format settings                          : CABAC / 4 Ref Frames
  7. Format settings, CABAC                   : Yes
  8. Format settings, Reference frames        : 4 frames
  9. Codec ID                                 : V_MPEG4/ISO/AVC
  10. Duration                                 : 1 h 35 min
  11. Bit rate                                 : 14.7 Mb/s
  12. Width                                    : 1 920 pixels
  13. Height                                   : 1 080 pixels
  14. Display aspect ratio                     : 16:9
  15. Frame rate mode                          : Constant
  16. Frame rate                               : 23.976 (24000/1001/189150) FPS
  17. Color space                              : YUV
  18. Chroma subsampling                       : 4:2:0
  19. Bit depth                                : 8 bits
  20. Scan type                                : Progressive
  21. Bits/(Pixel*Frame)                       : 0.296
  22. Stream size                              : 9.78 GiB (96%)
  23. Writing library                          : x264 core 157 r2969 d4099dd
  24. Encoding settings                        : cabac=1 / ref=4 / deblock=1:-2:-2 / analyse=0x3:0x133 / me=umh / subme=11 / psy=1 / psy_rd=0.90:0.00 / mixed_ref=1 / me_range=36 / chroma_me=1 / trellis=2 / 8x8dct=1 / cqm=0 / deadzone=21,11 / fast_pskip=0 / chroma_qp_offset=-2 / threads=6 / lookahead_threads=1 / sliced_threads=0 / nr=0 / decimate=0 / interlaced=0 / bluray_compat=0 / constrained_intra=0 / bframes=13 / b_pyramid=2 / b_adapt=2 / b_bias=0 / direct=3 / weightb=1 / open_gop=0 / weightp=2 / keyint=230 / keyint_min=23 / scenecut=40 / intra_refresh=0 / rc_lookahead=80 / rc=crf / mbtree=0 / crf=15.2 / qcomp=0.65 / qpmin=0 / qpmax=69 / qpstep=4 / vbv_maxrate=62500 / vbv_bufsize=78125 / crf_max=0.0 / nal_hrd=none / filler=0 / ip_ratio=1.30 / pb_ratio=1.20 / aq=3:0.90
  25. Language                                 : Korean
  26. Default                                  : Yes
  27. Forced                                   : No
  28. Color range                              : Limited
  29. Color primaries                          : BT.709
  30. Transfer characteristics                 : BT.709
  31. Matrix coefficients                      : BT.709
  32. Audio
  33. ID                                       : 2
  34. Format                                   : AC-3
  35. Format/Info                              : Audio Coding 3
  36. Commercial name                          : Dolby Digital
  37. Codec ID                                 : A_AC3
  38. Duration                                 : 1 h 34 min
  39. Bit rate mode                            : Constant
  40. Bit rate                                 : 640 kb/s
  41. Channel(s)                               : 6 channels
  42. Channel layout                           : L R C LFE Ls Rs
  43. Sampling rate                            : 48.0 kHz
  44. Frame rate                               : 31.250 FPS (1536 SPF)
  45. Compression mode                         : Lossy
  46. Stream size                              : 435 MiB (4%)
  47. Language                                 : Korean
  48. Service kind                             : Complete Main
  49. Default                                  : Yes
  50. Forced                                   : No
  51. Text #1
  52. ID                                       : 3
  53. Format                                   : UTF-8
  54. Codec ID                                 : S_TEXT/UTF8
  55. Codec ID/Info                            : UTF-8 Plain Text
  56. Duration                                 : 1 h 28 min
  57. Bit rate                                 : 26 b/s
  58. Count of elements                        : 529
  59. Stream size                              : 17.0 KiB (0%)
  60. Language                                 : English
  61. Default                                  : Yes
  62. Forced                                   : No
  63. Text #2
  64. ID                                       : 4
  65. Format                                   : PGS
  66. Codec ID                                 : S_HDMV/PGS
  67. Codec ID/Info                            : Picture based subtitle format used on BDs/HD-DVDs
  68. Duration                                 : 1 h 28 min
  69. Bit rate                                 : 21.5 kb/s
  70. Count of elements                        : 1060
  71. Stream size                              : 13.6 MiB (0%)
  72. Language                                 : Korean
  73. Default                                  : No
  74. Forced                                   : No
  75. Menu
  76. 00:00:00.000                             : en:Prologue - Day of Rain
  77. 00:29:54.501                             : en:Day of Fog
  78. 00:45:08.915                             : en:Day of Thunder & Lighting
  79. 01:02:55.772                             : en:Day of Wind
  80. 01:09:13.733                             : en:Day of Wonderful Days
  81. 01:30:06.776                             : en:End Credits
复制代码




                                       
                                       

                                       
                                       
                                       




回复

使用道具 举报

懒得打字嘛,点击右侧快捷回复 【右侧内容,后台自定义】
您需要登录后才可以回帖 登录 | 立即加入

本版积分规则

Archiver|小黑屋| 蓝光电影网 |网站地图

Copyright © 2021 Comsenz Inc. Powered by 蓝光电影网

蓝光电影网

本站内容由用户自主分享和转载自互联网,转载目的在于传递更多信息,并不代表本网赞同其观点和对其真实性负责。

如有侵权、违反国家法律政策行为,请联系我们,我们会第一时间及时清除和处理!

举报反馈邮箱:[email protected]

快速回复 返回顶部 返回列表