找回密码

蓝光电影网

查看: 18|回复: 0

[动作] 疾速求生 Ride.2018.TRASH.720p.BluRay.x264-GETiT 4.60GB

[复制链接]
蓝光币
382
发表于 2020-8-20 13:01:45 | 显示全部楼层 |阅读模式


◎译  名 快速求生
◎片  名 Ride
◎年  代 2018
◎产  地 意大利
◎类  别 行动
◎语  言 意大利语
◎上映日期 2018-09-06(意大利)
◎IMDb评分  4.8/10 from 272 users
◎IMDb链接  https://www.imdb.com/title/tt8456680
◎豆瓣评分 0/10 from 0 users
◎豆瓣链接 https://movie.douban.com/subject/34614652/
◎片  长 102分钟
◎导  演 Jacopo Rondinelli
◎主  演 Ludovic Hughes
       Lorenzo Richelmy
       Simone Labarga

◎标  签 意大利 | 2018 | GoPro | 惊悚 | M意大利
◎简  介

  
  ★好像单车版《飢饿游戏》! 初创全片以GoPro拍摄,激起你的肾上腺素
  ★鬼才新锐导演雅可波荣迪内利,首部长片大胆开创义大利电影崭新文娱范例
  ★Netflix史诗影集《马可波罗》男配角罗伦佐瑞奇米,化身专业自行车手缓慢应战高山峻岭之高危险赛道
  ★曾执导艾米汉默主演的荒凉求生钜作《Mine》的义大利著名编导搭挡法比欧瓜瑠纳、法比欧雷希纳洛,联手编剧刺激冒险新作
  ★年度必看限时求生电影,体验身历其境的极速快感!
  
  奥秘高额奖金的单车竞速角逐,背后却出现惊人诡计,意外展开限时求生赛…
  
  凯尔和马克斯是极限单车手。凯尔有家庭但妻子受不了他游手好闲,还成天拿生命当赌注,决议临时分隔并带走女儿;马可斯则欠了地下银号没有才能了偿债权,碰到严重的财政危机。他们偶然收到奥秘构造「黑色巴比伦」举行的越野比赛约请,得胜奖金25万美圆,在奖金驱使下决议加入比赛。没想到角逐起头后竟转酿成一场可骇仪式般的真人实境游戏,中途不但地形诡谲多变,还同时遭奥秘车手追杀,甚至发现角逐背后的惊人诡计,正威胁他们的生命…这场限时求生赛,他们究竟该若何冲破层层关卡,找到角逐/生命的出口呢?
  
  极限活动在天下各地吸引了越来越多玩家,更在2014年就曾缔造过24亿美金的商机,无疑极限活动高潮已遍及全球。义大利著名编导搭挡法比欧瓜瑠纳、法比欧雷希纳洛遭到好莱坞的喜爱,不但曾执导艾米汉默主演、在义大利创下140欧元票房的荒凉求生钜作《Mine》,此次更製作及编剧这部好像单车版《飢饿游戏》的活动冒险新作《快速求生》。找来擅长殊效排场的导演雅可波荣迪内利,更初创全片以GoPro拍摄,也收罗在Netflix史诗影集《马可波罗》积累全球粉丝的罗伦佐瑞奇米,成就绝无唯一的观影体验,就要激起你的肾上腺素!
  1. Video
  2. ID                                       : 1
  3. Format                                   : AVC
  4. Format/Info                              : Advanced Video Codec
  5. Format profile                           : [email protected]
  6. Format settings                          : CABAC / 8 Ref Frames
  7. Format settings, CABAC                   : Yes
  8. Format settings, Reference frames        : 8 frames
  9. Codec ID                                 : V_MPEG4/ISO/AVC
  10. Duration                                 : 1 h 41 min
  11. Bit rate                                 : 5 807 kb/s
  12. Width                                    : 1 280 pixels
  13. Height                                   : 690 pixels
  14. Display aspect ratio                     : 1.85:1
  15. Frame rate mode                          : Constant
  16. Frame rate                               : 24.000 FPS
  17. Color space                              : YUV
  18. Chroma subsampling                       : 4:2:0
  19. Bit depth                                : 8 bits
  20. Scan type                                : Progressive
  21. Bits/(Pixel*Frame)                       : 0.274
  22. Stream size                              : 4.13 GiB (90%)
  23. Writing library                          : x264 core 160 r3000 33f9e14
  24. Encoding settings                        : cabac=1 / ref=8 / deblock=1:-3:-3 / analyse=0x3:0x133 / me=umh / subme=9 / psy=1 / psy_rd=1.00:0.00 / mixed_ref=1 / me_range=16 / chroma_me=1 / trellis=2 / 8x8dct=1 / cqm=0 / deadzone=21,11 / fast_pskip=1 / chroma_qp_offset=-2 / threads=18 / lookahead_threads=1 / sliced_threads=0 / nr=0 / decimate=1 / interlaced=0 / bluray_compat=0 / constrained_intra=0 / bframes=3 / b_pyramid=2 / b_adapt=2 / b_bias=0 / direct=3 / weightb=1 / open_gop=0 / weightp=2 / keyint=250 / keyint_min=24 / scenecut=40 / intra_refresh=0 / rc_lookahead=60 / rc=crf / mbtree=1 / crf=20.0 / qcomp=0.60 / qpmin=0 / qpmax=69 / qpstep=4 / ip_ratio=1.40 / aq=3:0.80
  25. Language                                 : English
  26. Default                                  : Yes
  27. Forced                                   : No
  28. Color range                              : Limited
  29. Matrix coefficients                      : BT.709
  30. Audio
  31. ID                                       : 2
  32. Format                                   : AC-3
  33. Format/Info                              : Audio Coding 3
  34. Commercial name                          : Dolby Digital
  35. Codec ID                                 : A_AC3
  36. Duration                                 : 1 h 41 min
  37. Bit rate mode                            : Constant
  38. Bit rate                                 : 640 kb/s
  39. Channel(s)                               : 6 channels
  40. Channel layout                           : L R C LFE Ls Rs
  41. Sampling rate                            : 48.0 kHz
  42. Frame rate                               : 31.250 FPS (1536 SPF)
  43. Compression mode                         : Lossy
  44. Stream size                              : 466 MiB (10%)
  45. Title                                    : ac3
  46. Language                                 : English
  47. Service kind                             : Complete Main
  48. Default                                  : Yes
  49. Forced                                   : No
  50. Text
  51. ID                                       : 3
  52. Format                                   : PGS
  53. Muxing mode                              : zlib
  54. Codec ID                                 : S_HDMV/PGS
  55. Codec ID/Info                            : Picture based subtitle format used on BDs/HD-DVDs
  56. Duration                                 : 1 h 40 min
  57. Bit rate                                 : 12.9 kb/s
  58. Count of elements                        : 1954
  59. Stream size                              : 9.21 MiB (0%)
  60. Title                                    : vob subs
  61. Language                                 : German
  62. Default                                  : No
  63. Forced                                   : No
  64. Menu
  65. 00:00:00.000                             : en:00:00:00.000
  66. 00:08:54.250                             : en:00:08:54.250
  67. 00:16:07.292                             : en:00:16:07.292
  68. 00:24:25.708                             : en:00:24:25.708
  69. 00:33:05.583                             : en:00:33:05.583
  70. 00:41:18.750                             : en:00:41:18.750
  71. 00:50:07.500                             : en:00:50:07.500
  72. 00:58:44.917                             : en:00:58:44.917
  73. 01:07:31.833                             : en:01:07:31.833
  74. 01:16:16.292                             : en:01:16:16.292
  75. 01:21:39.042                             : en:01:21:39.042
  76. 01:33:23.250                             : en:01:33:23.250
复制代码




                                       
                                       

                                       
                                       
                                       




回复

使用道具 举报

懒得打字嘛,点击右侧快捷回复 【右侧内容,后台自定义】
您需要登录后才可以回帖 登录 | 立即加入

本版积分规则

Archiver|小黑屋| 蓝光电影网 |网站地图

Copyright © 2021 Comsenz Inc. Powered by 蓝光电影网

蓝光电影网

本站内容由用户自主分享和转载自互联网,转载目的在于传递更多信息,并不代表本网赞同其观点和对其真实性负责。

如有侵权、违反国家法律政策行为,请联系我们,我们会第一时间及时清除和处理!

举报反馈邮箱:[email protected]

快速回复 返回顶部 返回列表