找回密码

蓝光电影网

查看: 18|回复: 0

[科幻] 黄蜂女 The.Wasp.Woman.1959.THEATRICAL.CUT.1080p.BluRay.x264-PSYCHD 6.56GB

[复制链接]
蓝光币
382
发表于 2020-11-14 08:25:43 | 显示全部楼层 |阅读模式


◎译  名 黄蜂女/Insect Woman/The Bee Girl/狠心女人
◎片  名 The Wasp Woman
◎年  代 1959
◎产  地 美国
◎类  别 科幻 / 可骇
◎语  言 英语
◎上映日期 1960-02-12
◎IMDb评分  4.7/10 from 3992 users
◎IMDb链接  https://www.imdb.com/title/tt0054462/
◎豆瓣评分 /10 from 0 users
◎豆瓣链接 https://movie.douban.com/subject/2139091/
◎片  长 73 分钟
◎导  演 罗杰·科曼 Roger Corman / 杰克·希尔 Jack Hill
◎编  剧 里奥·戈登 Leo Gordon
◎主  演 苏珊·卡伯特 Susan Cabot
       安东尼·埃斯列 Anthony Eisley
       William Roerick
       弗兰克·沃尔夫 Frank Wolff
       Michael Mark
       阿龙·金凯德 Aron Kincaid
       Barboura Morris
       Roy Gordon
       弗兰克·格斯特 Frank Gerstle
       Lynn Cartwright
       罗杰·科曼 Roger Corman
       Bruno VeSota
◎标  签 科幻 | 可骇 | 美国 | Horror | 美國 | '50s-'70s | US | Sci-Fi
◎简  介


  A scientist develops a youth formula for a cosmetics queen from jelly taken from queen wasps, failing to anticipate the typical horrible side effects.
  1. Video
  2. ID                                       : 1
  3. Format                                   : AVC
  4. Format/Info                              : Advanced Video Codec
  5. Format profile                           : [email protected]
  6. Format settings                          : CABAC / 4 Ref Frames
  7. Format settings, CABAC                   : Yes
  8. Format settings, ReFrames                : 4 frames
  9. Codec ID                                 : V_MPEG4/ISO/AVC
  10. Duration                                 : 1 h 1 min
  11. Bit rate                                 : 13.8 Mb/s
  12. Width                                    : 1 920 pixels
  13. Height                                   : 1 040 pixels
  14. Display aspect ratio                     : 1.85:1
  15. Frame rate mode                          : Constant
  16. Frame rate                               : 23.976 (24000/1001/189150) FPS
  17. Color space                              : YUV
  18. Chroma subsampling                       : 4:2:0
  19. Bit depth                                : 8 bits
  20. Scan type                                : Progressive
  21. Bits/(Pixel*Frame)                       : 0.289
  22. Stream size                              : 5.91 GiB (90%)
  23. Writing library                          : x264 core 157 r2935 545de2f
  24. Encoding settings                        : cabac=1 / ref=4 / deblock=1:-3:-3 / analyse=0x3:0x113 / me=umh / subme=8 / psy=1 / psy_rd=1.10:0.00 / mixed_ref=1 / me_range=32 / chroma_me=1 / trellis=2 / 8x8dct=1 / cqm=0 / deadzone=21,11 / fast_pskip=1 / chroma_qp_offset=-2 / threads=32 / lookahead_threads=5 / sliced_threads=0 / nr=0 / decimate=1 / interlaced=0 / bluray_compat=0 / constrained_intra=0 / bframes=3 / b_pyramid=2 / b_adapt=2 / b_bias=0 / direct=3 / weightb=1 / open_gop=0 / weightp=2 / keyint=240 / keyint_min=24 / scenecut=40 / intra_refresh=0 / rc_lookahead=50 / rc=2pass / mbtree=1 / bitrate=13849 / ratetol=1.0 / qcomp=0.60 / qpmin=0 / qpmax=69 / qpstep=4 / cplxblur=20.0 / qblur=0.5 / ip_ratio=1.40 / aq=3:0.70
  25. Default                                  : Yes
  26. Forced                                   : No

  27. Audio
  28. ID                                       : 2
  29. Format                                   : DTS
  30. Format/Info                              : Digital Theater Systems
  31. Codec ID                                 : A_DTS
  32. Duration                                 : 1 h 1 min
  33. Bit rate mode                            : Constant
  34. Bit rate                                 : 1 509 kb/s
  35. Channel(s)                               : 2 channels
  36. Channel layout                           : L R
  37. Sampling rate                            : 48.0 kHz
  38. Frame rate                               : 93.750 FPS (512 SPF)
  39. Bit depth                                : 24 bits
  40. Compression mode                         : Lossy
  41. Stream size                              : 660 MiB (10%)
  42. Language                                 : English
  43. Default                                  : Yes
  44. Forced                                   : No

  45. Text #1
  46. ID                                       : 3
  47. Format                                   : UTF-8
  48. Codec ID                                 : S_TEXT/UTF8
  49. Codec ID/Info                            : UTF-8 Plain Text
  50. Duration                                 : 58 min 51 s
  51. Bit rate                                 : 63 b/s
  52. Count of elements                        : 951
  53. Stream size                              : 27.2 KiB (0%)
  54. Language                                 : English
  55. Default                                  : No
  56. Forced                                   : No

  57. Text #2
  58. ID                                       : 4
  59. Format                                   : UTF-8
  60. Codec ID                                 : S_TEXT/UTF8
  61. Codec ID/Info                            : UTF-8 Plain Text
  62. Duration                                 : 1 h 0 min
  63. Bit rate                                 : 65 b/s
  64. Count of elements                        : 1048
  65. Stream size                              : 29.0 KiB (0%)
  66. Title                                    : SDH
  67. Language                                 : English
  68. Default                                  : No
  69. Forced                                   : No

  70. Menu
  71. 00:00:00.000                             : en:00:00:00.000
  72. 00:04:53.084                             : en:00:04:53.084
  73. 00:08:11.282                             : en:00:08:11.282
  74. 00:12:06.726                             : en:00:12:06.726
  75. 00:16:54.847                             : en:00:16:54.847
  76. 00:22:36.105                             : en:00:22:36.105
  77. 00:28:17.029                             : en:00:28:17.029
  78. 00:34:39.995                             : en:00:34:39.995
  79. 00:39:31.744                             : en:00:39:31.744
  80. 00:45:44.951                             : en:00:45:44.951
  81. 00:51:41.098                             : en:00:51:41.098
  82. 00:57:19.311                             : en:00:57:19.311
复制代码




                                       
                                       

                                       
                                       
                                       




回复

使用道具 举报

懒得打字嘛,点击右侧快捷回复 【右侧内容,后台自定义】
您需要登录后才可以回帖 登录 | 立即加入

本版积分规则

Archiver|小黑屋| 蓝光电影网 |网站地图

Copyright © 2021 Comsenz Inc. Powered by 蓝光电影网

蓝光电影网

本站内容由用户自主分享和转载自互联网,转载目的在于传递更多信息,并不代表本网赞同其观点和对其真实性负责。

如有侵权、违反国家法律政策行为,请联系我们,我们会第一时间及时清除和处理!

举报反馈邮箱:[email protected]

快速回复 返回顶部 返回列表