找回密码

蓝光电影网

查看: 15|回复: 0

[恐怖] 重生 Reborn.2018.1080p.BluRay.x264-GUACAMOLE 5.57GB

[复制链接]
蓝光币
382
发表于 2020-12-6 15:12:46 | 显示全部楼层 |阅读模式
[img][/img]

◎译  名 更生
◎片  名 Reborn
◎年  代 2018
◎产  地 美国
◎类  别 可骇
◎语  言 英语
◎上映日期 2018-11-03(英国)
◎IMDb评分  4.2/10 from 453 users
◎IMDb链接  https://www.imdb.com/title/tt7975674/
◎豆瓣评分 /10 from 0 users
◎豆瓣链接 https://movie.douban.com/subject/30149888/
◎片  长 80分钟
◎导  演 朱利安·理查德 Julian Richards
◎主  演 迈克尔·帕尔 Michael Paré
       Chaz Bono
       芭芭拉·克兰普顿 Barbara Crampton
       凯莉·吉尔伯特 Kayleigh Gilbert
◎标  签 剧情 | 超才能 | 超强人士 | 美国电影 | 可骇 | 异能系列
◎简  介


  A morgue attendant kidnaps a stillborn baby girl and brings her back to life with electrokinetic powers. On her 16th birthday, she escapes captivity and sets out to find her birth mother, leaving a trail of destruction behind her.
  1. Video
  2. ID                                       : 1
  3. Format                                   : AVC
  4. Format/Info                              : Advanced Video Codec
  5. Format profile                           : [email protected]
  6. Format settings                          : CABAC / 5 Ref Frames
  7. Format settings, CABAC                   : Yes
  8. Format settings, Reference frames        : 5 frames
  9. Codec ID                                 : V_MPEG4/ISO/AVC
  10. Duration                                 : 1 h 16 min
  11. Bit rate                                 : 8 630 kb/s
  12. Width                                    : 1 920 pixels
  13. Height                                   : 808 pixels
  14. Display aspect ratio                     : 2.40:1
  15. Frame rate mode                          : Constant
  16. Frame rate                               : 23.976 (24000/1001/189150) FPS
  17. Color space                              : YUV
  18. Chroma subsampling                       : 4:2:0
  19. Bit depth                                : 8 bits
  20. Scan type                                : Progressive
  21. Bits/(Pixel*Frame)                       : 0.232
  22. Stream size                              : 4.63 GiB (83%)
  23. Writing library                          : x264 core 161 r3027 4121277
  24. Encoding settings                        : cabac=1 / ref=5 / deblock=1:-3:-3 / analyse=0x3:0x133 / me=umh / subme=9 / psy=1 / psy_rd=1.00:0.00 / mixed_ref=1 / me_range=16 / chroma_me=1 / trellis=2 / 8x8dct=1 / cqm=0 / deadzone=21,11 / fast_pskip=0 / chroma_qp_offset=-2 / threads=24 / lookahead_threads=2 / sliced_threads=0 / nr=0 / decimate=1 / interlaced=0 / bluray_compat=0 / constrained_intra=0 / bframes=3 / b_pyramid=2 / b_adapt=2 / b_bias=0 / direct=3 / weightb=1 / open_gop=0 / weightp=2 / keyint=250 / keyint_min=23 / scenecut=40 / intra_refresh=0 / rc_lookahead=60 / rc=crf / mbtree=1 / crf=17.0 / qcomp=0.60 / qpmin=0 / qpmax=69 / qpstep=4 / ip_ratio=1.40 / aq=3:1.00
  25. Default                                  : Yes
  26. Forced                                   : No
  27. Color range                              : Limited
  28. Color primaries                          : BT.709
  29. Transfer characteristics                 : BT.709
  30. Matrix coefficients                      : BT.709

  31. Audio
  32. ID                                       : 2
  33. Format                                   : DTS XLL
  34. Format/Info                              : Digital Theater Systems
  35. Commercial name                          : DTS-HD Master Audio
  36. Codec ID                                 : A_DTS
  37. Duration                                 : 1 h 16 min
  38. Bit rate mode                            : Variable
  39. Bit rate                                 : 1 744 kb/s
  40. Channel(s)                               : 6 channels
  41. Channel layout                           : C L R Ls Rs LFE
  42. Sampling rate                            : 48.0 kHz
  43. Frame rate                               : 93.750 FPS (512 SPF)
  44. Bit depth                                : 16 bits
  45. Compression mode                         : Lossless
  46. Stream size                              : 957 MiB (17%)
  47. Language                                 : English
  48. Default                                  : Yes
  49. Forced                                   : No

  50. Text
  51. ID                                       : 3
  52. Format                                   : PGS
  53. Muxing mode                              : zlib
  54. Codec ID                                 : S_HDMV/PGS
  55. Codec ID/Info                            : Picture based subtitle format used on BDs/HD-DVDs
  56. Duration                                 : 1 h 11 min
  57. Bit rate                                 : 25.4 kb/s
  58. Count of elements                        : 1214
  59. Stream size                              : 13.0 MiB (0%)
  60. Title                                    : SDH
  61. Language                                 : German
  62. Default                                  : No
  63. Forced                                   : No

  64. Menu
  65. 00:00:00.000                             : en:00:00:00.000
  66. 00:08:14.828                             : en:00:08:14.828
  67. 00:17:45.731                             : en:00:17:45.731
  68. 00:24:14.703                             : en:00:24:14.703
  69. 00:34:14.386                             : en:00:34:14.386
  70. 00:43:42.411                             : en:00:43:42.411
  71. 00:54:10.289                             : en:00:54:10.289
  72. 01:03:11.287                             : en:01:03:11.287
  73. 01:07:17.242                             : en:01:07:17.242
  74. 01:17:45.870                             : en:01:17:45.870
  75. 01:22:35.784                             : en:01:22:35.784
  76. 01:25:19.531                             : en:01:25:19.531
复制代码



                                       
                                       

                                       
                                       
                                       




回复

使用道具 举报

懒得打字嘛,点击右侧快捷回复 【右侧内容,后台自定义】
您需要登录后才可以回帖 登录 | 立即加入

本版积分规则

Archiver|小黑屋| 蓝光电影网 |网站地图

Copyright © 2021 Comsenz Inc. Powered by 蓝光电影网

蓝光电影网

本站内容由用户自主分享和转载自互联网,转载目的在于传递更多信息,并不代表本网赞同其观点和对其真实性负责。

如有侵权、违反国家法律政策行为,请联系我们,我们会第一时间及时清除和处理!

举报反馈邮箱:[email protected]

快速回复 返回顶部 返回列表