找回密码

蓝光电影网

查看: 8|回复: 0

[喜剧] 广告之王/如何在广告界出人头地 How.to.Get.Ahead.in.Advertising.1989.1080p.BluRay.x264-PSYCHD 8.74GB

[复制链接]
蓝光币
382
发表于 2020-8-19 21:51:27 | 显示全部楼层 |阅读模式
◎译  名 广告之王 / 若何在广告界高人一等
◎片  名 广告之王 How to Get Ahead in Advertising
◎年  代 1989
◎国  家 英国
◎类  别 笑剧 / 奇异
◎语  言 英语
◎上映日期 1989-05-05
◎IMDb评分  6.9/10 from 5,421 users
◎IMDb链接  http://www.imdb.com/title/tt0097531/
◎豆瓣评分 7.3/10 from  users
◎豆瓣链接 https://movie.douban.com/subject/1752159/
◎片  长 94 分钟
◎导  演 布鲁斯·罗宾逊
◎主  演 理查德·E·格兰特
      蕾切尔·沃德
      理查德·威尔逊
      Jacqueline Tong
      约翰·斯拉普内尔
      苏珊·伍尔德里奇
      米克·福德
      杰奎琳·皮尔斯
      Christopher Simon
      Victor Lucas
      Gordon Gostelow
      皮普·托伦斯
      托尼·斯莱特里
      罗迪·莫德-罗克斯比
      肖恩·宾
◎简  介

 
  丹尼斯·蒂伯勒百·巴格利是一个年轻有为的广告设想师,却某次因一种新款去痘霜而没法获得建造广告的灵感。他过度的忧愁致使近乎疯狂,妻子朋友等相当为他担忧。随后,他的脖子上长出了一个庞大且希奇的疖子,当阿谁怪疖子起头长出眼睛和嘴巴并会措辞时,巴格利起头思考他能否精神变态……
本片作为最风趣的另类英国笑剧之一,在英国影史占有重要职位。
  1. Video
  2. ID                                       : 1
  3. Format                                   : AVC
  4. Format/Info                              : Advanced Video Codec
  5. Format profile                           : [email protected]
  6. Format settings                          : CABAC / 4 Ref Frames
  7. Format settings, CABAC                   : Yes
  8. Format settings, Reference frames        : 4 frames
  9. Codec ID                                 : V_MPEG4/ISO/AVC
  10. Duration                                 : 1 h 33 min
  11. Bit rate                                 : 12.7 Mb/s
  12. Width                                    : 1 920 pixels
  13. Height                                   : 1 040 pixels
  14. Display aspect ratio                     : 1.85:1
  15. Frame rate mode                          : Constant
  16. Frame rate                               : 23.976 (24000/1001/189150) FPS
  17. Color space                              : YUV
  18. Chroma subsampling                       : 4:2:0
  19. Bit depth                                : 8 bits
  20. Scan type                                : Progressive
  21. Bits/(Pixel*Frame)                       : 0.265
  22. Stream size                              : 8.15 GiB (93%)
  23. Writing library                          : x264 core 146 r2538 121396c
  24. Encoding settings                        : cabac=1 / ref=4 / deblock=1:-3:-3 / analyse=0x3:0x113 / me=umh / subme=8 / psy=1 / psy_rd=1.15:0.00 / mixed_ref=1 / me_range=24 / chroma_me=1 / trellis=1 / 8x8dct=1 / cqm=0 / deadzone=21,11 / fast_pskip=0 / chroma_qp_offset=-2 / threads=18 / lookahead_threads=3 / sliced_threads=0 / nr=0 / decimate=1 / interlaced=0 / bluray_compat=0 / constrained_intra=0 / bframes=3 / b_pyramid=2 / b_adapt=2 / b_bias=0 / direct=3 / weightb=1 / open_gop=0 / weightp=2 / keyint=240 / keyint_min=24 / scenecut=40 / intra_refresh=0 / rc_lookahead=50 / rc=2pass / mbtree=1 / bitrate=12680 / ratetol=1.0 / qcomp=0.60 / qpmin=0 / qpmax=69 / qpstep=4 / cplxblur=20.0 / qblur=0.5 / ip_ratio=1.40 / aq=3:0.70
  25. Language                                 : English
  26. Default                                  : Yes
  27. Forced                                   : No

  28. Audio
  29. ID                                       : 2
  30. Format                                   : AC-3
  31. Format/Info                              : Audio Coding 3
  32. Commercial name                          : Dolby Digital
  33. Codec ID                                 : A_AC3
  34. Duration                                 : 1 h 33 min
  35. Bit rate mode                            : Constant
  36. Bit rate                                 : 640 kb/s
  37. Channel(s)                               : 2 channels
  38. Channel layout                           : L R
  39. Sampling rate                            : 48.0 kHz
  40. Frame rate                               : 31.250 FPS (1536 SPF)
  41. Compression mode                         : Lossy
  42. Stream size                              : 430 MiB (5%)
  43. Language                                 : English
  44. Service kind                             : Complete Main
  45. Default                                  : Yes
  46. Forced                                   : No

  47. Text #1
  48. ID                                       : 3
  49. Format                                   : UTF-8
  50. Codec ID                                 : S_TEXT/UTF8
  51. Codec ID/Info                            : UTF-8 Plain Text
  52. Language                                 : English
  53. Default                                  : No
  54. Forced                                   : No

  55. Text #2
  56. ID                                       : 4
  57. Format                                   : UTF-8
  58. Codec ID                                 : S_TEXT/UTF8
  59. Codec ID/Info                            : UTF-8 Plain Text
  60. Title                                    : SDH
  61. Language                                 : English
  62. Default                                  : No
  63. Forced                                   : No

  64. Menu
  65. 00:00:00.000                             : en:00:00:00.000
  66. 00:07:05.216                             : en:00:07:05.216
  67. 00:15:37.645                             : en:00:15:37.645
  68. 00:22:52.913                             : en:00:22:52.913
  69. 00:29:45.617                             : en:00:29:45.617
  70. 00:36:59.509                             : en:00:36:59.509
  71. 00:46:14.981                             : en:00:46:14.981
  72. 00:54:11.081                             : en:00:54:11.081
  73. 01:01:21.219                             : en:01:01:21.219
  74. 01:09:46.140                             : en:01:09:46.140
  75. 01:18:31.707                             : en:01:18:31.707
  76. 01:27:34.791                             : en:01:27:34.791
复制代码






                                       
                                       

                                       
                                       
                                       




回复

使用道具 举报

懒得打字嘛,点击右侧快捷回复 【右侧内容,后台自定义】
您需要登录后才可以回帖 登录 | 立即加入

本版积分规则

Archiver|小黑屋| 蓝光电影网 |网站地图

Copyright © 2021 Comsenz Inc. Powered by 蓝光电影网

蓝光电影网

本站内容由用户自主分享和转载自互联网,转载目的在于传递更多信息,并不代表本网赞同其观点和对其真实性负责。

如有侵权、违反国家法律政策行为,请联系我们,我们会第一时间及时清除和处理!

举报反馈邮箱:[email protected]

快速回复 返回顶部 返回列表