找回密码

蓝光电影网

查看: 12|回复: 0

[动作] 星际传奇 Pitch.Black.2000.REMASTERED.DC.720p.BluRay.X264-AMIABLE 6.32GB

[复制链接]
蓝光币
382
发表于 2020-8-20 12:54:58 | 显示全部楼层 |阅读模式


◎译  名 星际传奇 / The Chronicles of Riddick: Pitch Black / 黝黑一片 / 黑煞天魔
◎片  名 Pitch Black
◎年  代 2000
◎产  地 美国
◎类  别 行动 / 科幻 / 惊悚
◎语  言 英语 / 阿拉伯语
◎上映日期 2000-02-18
◎IMDb评分  7.1/10 from 220944 users
◎IMDb链接  https://www.imdb.com/title/tt0134847
◎豆瓣评分 7.2/10 from 24245 users
◎豆瓣链接 https://movie.douban.com/subject/1296459/
◎片  长 109 分钟
◎导  演 David Twohy
◎编  剧 Jim Wheat / Ken Wheat / David Twohy
◎主  演 Vin Diesel
       Radha Mitchell
       Cole Hauser
       Keith David
       Lewis Fitz-Gerald

◎标  签 科幻 | 美国 | 行动 | 惊悚 | 文·迪塞尔 | 星际传奇 | 2000 | 美国电影
◎简  介

  
  在浩大的宇宙间,一艘名为猎人号的商用飞船正停止着冗长的旅程。船上搭载着40位乘客,其中包括重刑罪犯理查·雷迪克(Vin Diesel 饰)。当行驶到丹吉尔星系时,突如其来的变乱令飞船蒙受重创,空气飞速泄露,终极迫降到一颗酷热而荒凉的星球上。着陆时的庞大冲击力几近让飞船支离破裂,死伤者众多。幸存者们来到这片陌生的河山,严酷的自然情况考验着每一小我,分歧民族分歧职业的他们此时必须捐弃前嫌,结合起来。他们不但要与天空中三个太阳作抗争,还要时辰提防隐藏在黑黑暗的危险……
  本片荣获2001年澳大利亚摄影师协会年度最好摄影师和金三角架奖。
  1. Video
  2. ID                                       : 1
  3. Format                                   : AVC
  4. Format/Info                              : Advanced Video Codec
  5. Format profile                           : [email protected]
  6. Format settings                          : CABAC / 11 Ref Frames
  7. Format settings, CABAC                   : Yes
  8. Format settings, Reference frames        : 11 frames
  9. Codec ID                                 : V_MPEG4/ISO/AVC
  10. Duration                                 : 1 h 51 min
  11. Bit rate                                 : 7 183 kb/s
  12. Width                                    : 1 280 pixels
  13. Height                                   : 546 pixels
  14. Display aspect ratio                     : 2.35:1
  15. Frame rate mode                          : Constant
  16. Frame rate                               : 24.000 FPS
  17. Color space                              : YUV
  18. Chroma subsampling                       : 4:2:0
  19. Bit depth                                : 8 bits
  20. Scan type                                : Progressive
  21. Bits/(Pixel*Frame)                       : 0.428
  22. Stream size                              : 5.61 GiB (89%)
  23. Writing library                          : x264 core 161 r3018 db0d417
  24. Encoding settings                        : cabac=1 / ref=11 / deblock=1:-3:-3 / analyse=0x3:0x133 / me=umh / subme=10 / psy=1 / psy_rd=1.05:0.00 / mixed_ref=1 / me_range=24 / chroma_me=1 / trellis=2 / 8x8dct=1 / cqm=0 / deadzone=21,11 / fast_pskip=0 / chroma_qp_offset=-2 / threads=17 / lookahead_threads=4 / sliced_threads=0 / nr=0 / decimate=0 / interlaced=0 / bluray_compat=0 / constrained_intra=0 / bframes=10 / b_pyramid=2 / b_adapt=2 / b_bias=0 / direct=3 / weightb=1 / open_gop=0 / weightp=2 / keyint=250 / keyint_min=24 / scenecut=40 / intra_refresh=0 / rc=crf / mbtree=0 / crf=17.6 / qcomp=0.60 / qpmin=0 / qpmax=69 / qpstep=4 / ip_ratio=1.30 / pb_ratio=1.20 / aq=3:0.70
  25. Default                                  : Yes
  26. Forced                                   : No
  27. Color range                              : Limited
  28. Matrix coefficients                      : BT.709

  29. Audio #1
  30. ID                                       : 2
  31. Format                                   : AC-3
  32. Format/Info                              : Audio Coding 3
  33. Commercial name                          : Dolby Digital
  34. Codec ID                                 : A_AC3
  35. Duration                                 : 1 h 51 min
  36. Bit rate mode                            : Constant
  37. Bit rate                                 : 640 kb/s
  38. Channel(s)                               : 6 channels
  39. Channel layout                           : L R C LFE Ls Rs
  40. Sampling rate                            : 48.0 kHz
  41. Frame rate                               : 31.250 FPS (1536 SPF)
  42. Compression mode                         : Lossy
  43. Stream size                              : 512 MiB (8%)
  44. Title                                    : AC-3 5.1
  45. Language                                 : English
  46. Service kind                             : Complete Main
  47. Default                                  : Yes
  48. Forced                                   : No

  49. Audio #2
  50. ID                                       : 6
  51. Format                                   : AAC LC
  52. Format/Info                              : Advanced Audio Codec Low Complexity
  53. Codec ID                                 : A_AAC-2
  54. Duration                                 : 1 h 51 min
  55. Bit rate                                 : 124 kb/s
  56. Channel(s)                               : 2 channels
  57. Channel layout                           : L R
  58. Sampling rate                            : 48.0 kHz
  59. Frame rate                               : 46.875 FPS (1024 SPF)
  60. Compression mode                         : Lossy
  61. Delay relative to video                  : 9 ms
  62. Stream size                              : 99.4 MiB (2%)
  63. Title                                    : Commentary with director David Twohy and actors Vin Diesel and Cole Hauser
  64. Language                                 : English
  65. Default                                  : No
  66. Forced                                   : No

  67. Audio #3
  68. ID                                       : 7
  69. Format                                   : AAC LC
  70. Format/Info                              : Advanced Audio Codec Low Complexity
  71. Codec ID                                 : A_AAC-2
  72. Duration                                 : 1 h 51 min
  73. Bit rate                                 : 132 kb/s
  74. Channel(s)                               : 2 channels
  75. Channel layout                           : L R
  76. Sampling rate                            : 48.0 kHz
  77. Frame rate                               : 46.875 FPS (1024 SPF)
  78. Compression mode                         : Lossy
  79. Delay relative to video                  : 9 ms
  80. Stream size                              : 104 MiB (2%)
  81. Title                                    : Commentary with director David Twohy, producer Tom Engelman and visual effects supervisor Peter Chiang
  82. Language                                 : English
  83. Default                                  : No
  84. Forced                                   : No

  85. Text #1
  86. ID                                       : 3
  87. Format                                   : UTF-8
  88. Codec ID                                 : S_TEXT/UTF8
  89. Codec ID/Info                            : UTF-8 Plain Text
  90. Duration                                 : 1 h 44 min
  91. Bit rate                                 : 37 b/s
  92. Count of elements                        : 949
  93. Stream size                              : 29.0 KiB (0%)
  94. Title                                    : Stripped SRT
  95. Language                                 : English
  96. Default                                  : No
  97. Forced                                   : No

  98. Text #2
  99. ID                                       : 4
  100. Format                                   : UTF-8
  101. Codec ID                                 : S_TEXT/UTF8
  102. Codec ID/Info                            : UTF-8 Plain Text
  103. Duration                                 : 1 h 44 min
  104. Bit rate                                 : 41 b/s
  105. Count of elements                        : 1123
  106. Stream size                              : 31.8 KiB (0%)
  107. Title                                    : SDH SRT
  108. Language                                 : English
  109. Default                                  : No
  110. Forced                                   : No

  111. Text #3
  112. ID                                       : 5
  113. Format                                   : PGS
  114. Muxing mode                              : zlib
  115. Codec ID                                 : S_HDMV/PGS
  116. Codec ID/Info                            : Picture based subtitle format used on BDs/HD-DVDs
  117. Duration                                 : 1 h 44 min
  118. Bit rate                                 : 27.8 kb/s
  119. Count of elements                        : 2246
  120. Stream size                              : 20.8 MiB (0%)
  121. Title                                    : English SDH
  122. Language                                 : English
  123. Default                                  : No
  124. Forced                                   : No

  125. Menu
  126. 00:00:00.000                             : en:Chapter 01
  127. 00:11:13.208                             : en:Chapter 02
  128. 00:18:27.458                             : en:Chapter 03
  129. 00:27:09.708                             : en:Chapter 04
  130. 00:36:45.458                             : en:Chapter 05
  131. 00:46:35.917                             : en:Chapter 06
  132. 00:56:13.625                             : en:Chapter 07
  133. 01:02:39.875                             : en:Chapter 08
  134. 01:12:18.125                             : en:Chapter 09
  135. 01:19:16.125                             : en:Chapter 10
  136. 01:33:36.542                             : en:Chapter 11
  137. 01:39:17.708                             : en:Chapter 12
复制代码




                                       
                                       

                                       
                                       
                                       




回复

使用道具 举报

懒得打字嘛,点击右侧快捷回复 【右侧内容,后台自定义】
您需要登录后才可以回帖 登录 | 立即加入

本版积分规则

Archiver|小黑屋| 蓝光电影网 |网站地图

Copyright © 2021 Comsenz Inc. Powered by 蓝光电影网

蓝光电影网

本站内容由用户自主分享和转载自互联网,转载目的在于传递更多信息,并不代表本网赞同其观点和对其真实性负责。

如有侵权、违反国家法律政策行为,请联系我们,我们会第一时间及时清除和处理!

举报反馈邮箱:[email protected]

快速回复 返回顶部 返回列表