找回密码

蓝光电影网

查看: 32|回复: 0

[动作] 伊贺忍法帖 The.Ninja.Wars.1982.JAPANESE.1080p.BluRay.x264.FLAC.2.0-HANDJOB 8.61GB

[复制链接]
蓝光币
519
发表于 2021-5-19 08:54:58 | 显示全部楼层 |阅读模式
[img][/img]

◎译  名 伊贺忍法帖/Death of A Ninja
◎片  名 伊賀忍法帖
◎年  代 1982
◎产  地 日本
◎类  别 行动 / 奇异
◎语  言 日语
◎上映日期 1982-12-18(日本)
◎豆瓣评分 6.2/10 from 153 users
◎豆瓣链接 https://movie.douban.com/subject/2139284/
◎片  长 Japan: 100 分钟
◎导  演 斎藤光正 K?sei Sait?
◎编  剧 山田风太郎 Futaro Yamada
◎主  演 真田广之 Hiroyuki Sanada
       渡边典子 Noriko Watanabe
       千叶真一 Sonny Chiba
       小林喜三 Strong Kong?
       佐藤蛾次郎 Gajiro Satoh
       中尾彬 Akira Nakao
       美保纯 Jun Miho
       风祭由纪 Yuki Kazamatsuri
       成田三树夫 Mikio Narita
       福本清三 Seizo Fukumoto
       田中浩 Hiroshi Tanaka
◎标  签 日本 | 日本电影 | 真田广之 | 1982 | 忍着门户 | 行动 | 奇异 | 渡边典子
◎简  介


  在黑暗时代,妖术师果心居士挑唆松永弹正夺取全国,一对青梅竹马的忍者情人城太郎(真田广之 饰演)与篝火(渡边典子 饰演)成为了最无辜的牺牲品!
  
  为了拯救被绑架的爱人篝火,城太郎与果心居士及其手下,展开忍术与魔法的决战..........
  1. Video
  2. ID                                       : 1
  3. Format                                   : AVC
  4. Format/Info                              : Advanced Video Codec
  5. Format profile                           : [email protected]
  6. Format settings                          : CABAC / 4 Ref Frames
  7. Format settings, CABAC                   : Yes
  8. Format settings, Reference frames        : 4 frames
  9. Codec ID                                 : V_MPEG4/ISO/AVC
  10. Duration                                 : 1 h 40 min
  11. Bit rate                                 : 11.9 Mb/s
  12. Width                                    : 1 910 pixels
  13. Height                                   : 1 038 pixels
  14. Display aspect ratio                     : 1.85:1
  15. Frame rate mode                          : Constant
  16. Frame rate                               : 23.976 (24000/1001/189150) FPS
  17. Color space                              : YUV
  18. Chroma subsampling                       : 4:2:0
  19. Bit depth                                : 8 bits
  20. Scan type                                : Progressive
  21. Bits/(Pixel*Frame)                       : 0.251
  22. Stream size                              : 8.35 GiB (97%)
  23. Writing library                          : x264 core 157 r2935 545de2f
  24. Encoding settings                        : cabac=1 / ref=4 / deblock=1:-3:-3 / analyse=0x3:0x133 / me=umh / subme=10 / psy=1 / psy_rd=1.00:0.00 / mixed_ref=1 / me_range=32 / chroma_me=1 / trellis=2 / 8x8dct=1 / cqm=0 / deadzone=21,11 / fast_pskip=0 / chroma_qp_offset=-2 / threads=24 / lookahead_threads=6 / sliced_threads=0 / nr=0 / decimate=0 / interlaced=0 / bluray_compat=0 / constrained_intra=0 / bframes=16 / b_pyramid=2 / b_adapt=2 / b_bias=0 / direct=3 / weightb=1 / open_gop=0 / weightp=2 / keyint=240 / keyint_min=24 / scenecut=40 / intra_refresh=0 / rc_lookahead=60 / rc=crf / mbtree=0 / crf=21.0 / qcomp=0.60 / qpmin=0 / qpmax=69 / qpstep=4 / vbv_maxrate=62500 / vbv_bufsize=78125 / crf_max=0.0 / nal_hrd=none / filler=0 / ip_ratio=1.40 / pb_ratio=1.30 / aq=2:1.00
  25. Default                                  : Yes
  26. Forced                                   : No
  27. Color range                              : Limited
  28. Color primaries                          : BT.709
  29. Transfer characteristics                 : BT.709
  30. Matrix coefficients                      : BT.709
  31. Audio
  32. ID                                       : 2
  33. Format                                   : FLAC
  34. Format/Info                              : Free Lossless Audio Codec
  35. Codec ID                                 : A_FLAC
  36. Duration                                 : 1 h 40 min
  37. Bit rate mode                            : Variable
  38. Bit rate                                 : 362 kb/s
  39. Channel(s)                               : 2 channels
  40. Channel layout                           : L R
  41. Sampling rate                            : 48.0 kHz
  42. Frame rate                               : 11.719 FPS (4096 SPF)
  43. Bit depth                                : 16 bits
  44. Compression mode                         : Lossless
  45. Stream size                              : 259 MiB (3%)
  46. Language                                 : Japanese
  47. Default                                  : Yes
  48. Forced                                   : No
  49. Text #1
  50. ID                                       : 3
  51. Format                                   : UTF-8
  52. Codec ID                                 : S_TEXT/UTF8
  53. Codec ID/Info                            : UTF-8 Plain Text
  54. Duration                                 : 1 h 39 min
  55. Bit rate                                 : 21 b/s
  56. Count of elements                        : 647
  57. Stream size                              : 15.5 KiB (0%)
  58. Language                                 : English
  59. Default                                  : Yes
  60. Forced                                   : No
  61. Text #2
  62. ID                                       : 4
  63. Format                                   : PGS
  64. Muxing mode                              : zlib
  65. Codec ID                                 : S_HDMV/PGS
  66. Codec ID/Info                            : Picture based subtitle format used on BDs/HD-DVDs
  67. Duration                                 : 17 min 0 s
  68. Bit rate                                 : 83.7 kb/s
  69. Count of elements                        : 2
  70. Stream size                              : 10.2 MiB (0%)
  71. Language                                 : Japanese
  72. Default                                  : No
  73. Forced                                   : No
  74. Menu
  75. 00:00:00.000                             : :Chapter 1
  76. 00:08:26.631                             : :Chapter 2
  77. 00:14:31.829                             : :Chapter 3
  78. 00:22:43.612                             : :Chapter 4
  79. 00:25:52.092                             : :Chapter 5
  80. 00:31:44.069                             : :Chapter 6
  81. 00:35:21.536                             : :Chapter 7
  82. 00:37:25.577                             : :Chapter 8
  83. 00:43:24.727                             : :Chapter 9
  84. 00:52:18.677                             : :Chapter 10
  85. 01:01:45.911                             : :Chapter 11
  86. 01:13:02.837                             : :Chapter 12
  87. 01:21:24.088                             : :Chapter 13
  88. 01:26:40.195                             : :Chapter 14
  89. 01:34:06.391                             : :Chapter 15
复制代码




                                       
                                       

                                       
                                       
                                       




回复

使用道具 举报

懒得打字嘛,点击右侧快捷回复 【右侧内容,后台自定义】
您需要登录后才可以回帖 登录 | 立即加入

本版积分规则

Archiver|小黑屋| 蓝光电影网 |网站地图

Copyright © 2021 Comsenz Inc. Powered by 蓝光电影网

蓝光电影网

本站内容由用户自主分享和转载自互联网,转载目的在于传递更多信息,并不代表本网赞同其观点和对其真实性负责。

如有侵权、违反国家法律政策行为,请联系我们,我们会第一时间及时清除和处理!

举报反馈邮箱:[email protected]

快速回复 返回顶部 返回列表