找回密码

蓝光电影网

查看: 12|回复: 0

[惊悚] 鬼哭神嚎3 Amityville.3.1983.720p.BluRay.x264-FREEMAN 3.16GB

[复制链接]
蓝光币
426
发表于 2021-1-8 19:21:10 | 显示全部楼层 |阅读模式
[img][/img]

◎译  名 鬼哭神嚎3
◎片  名 Amityville 3-D
◎年  代 1983
◎产  地 美国
◎类  别 惊悚 / 可骇
◎语  言 英语
◎上映日期 1983-11-18
◎IMDb评分  4.1/10 from 5772 users
◎IMDb链接  https://www.imdb.com/title/tt0085159/
◎豆瓣评分 4.8/10 from 98 users
◎豆瓣链接 https://movie.douban.com/subject/1294743/
◎片  长 105 分钟
◎导  演 理查德·弗莱彻 Richard Fleischer
◎标  签 可骇 | 美国 | 惊悚 | 我看过的电影 | 我看过的可骇电影 | Horror | 我看过的英语电影 | 可骇电影
◎简  介


  约翰专为《启迪杂志》揭穿一些所谓闹鬼的故事,观察完艾米提别墅后,他决意搬进这座传闻中的鬼屋,他原本果断不信天下上有鬼,但今后与这座有关联的人相继古怪惨死,包括他的女儿和同伴,约翰无法之下被迫请精神博士抵家驱鬼……
  1. Video
  2. ID                                       : 1
  3. Format                                   : AVC
  4. Format/Info                              : Advanced Video Codec
  5. Format profile                           : [email protected]
  6. Format settings                          : CABAC / 8 Ref Frames
  7. Format settings, CABAC                   : Yes
  8. Format settings, Reference frames        : 8 frames
  9. Codec ID                                 : V_MPEG4/ISO/AVC
  10. Duration                                 : 1 h 33 min
  11. Bit rate                                 : 4 313 kb/s
  12. Width                                    : 1 280 pixels
  13. Height                                   : 546 pixels
  14. Display aspect ratio                     : 2.35:1
  15. Frame rate mode                          : Constant
  16. Frame rate                               : 23.976 (24000/1001/189150) FPS
  17. Color space                              : YUV
  18. Chroma subsampling                       : 4:2:0
  19. Bit depth                                : 8 bits
  20. Scan type                                : Progressive
  21. Bits/(Pixel*Frame)                       : 0.257
  22. Stream size                              : 2.81 GiB (89%)
  23. Writing library                          : x264 core 161 r3018 db0d417
  24. Encoding settings                        : cabac=1 / ref=8 / deblock=1:-3:-3 / analyse=0x3:0x133 / me=umh / subme=9 / psy=1 / psy_rd=1.00:0.00 / mixed_ref=1 / me_range=16 / chroma_me=1 / trellis=2 / 8x8dct=1 / cqm=0 / deadzone=21,11 / fast_pskip=0 / chroma_qp_offset=-2 / threads=17 / lookahead_threads=1 / sliced_threads=0 / nr=0 / decimate=1 / interlaced=0 / bluray_compat=0 / constrained_intra=0 / bframes=3 / b_pyramid=2 / b_adapt=2 / b_bias=0 / direct=3 / weightb=1 / open_gop=0 / weightp=2 / keyint=250 / keyint_min=23 / scenecut=40 / intra_refresh=0 / rc_lookahead=60 / rc=crf / mbtree=1 / crf=18.7 / qcomp=0.60 / qpmin=0 / qpmax=69 / qpstep=4 / ip_ratio=1.40 / aq=1:1.00
  25. Language                                 : English
  26. Default                                  : Yes
  27. Forced                                   : No

  28. Audio #1
  29. ID                                       : 2
  30. Format                                   : FLAC
  31. Format/Info                              : Free Lossless Audio Codec
  32. Codec ID                                 : A_FLAC
  33. Duration                                 : 1 h 33 min
  34. Bit rate mode                            : Variable
  35. Bit rate                                 : 412 kb/s
  36. Channel(s)                               : 2 channels
  37. Channel layout                           : L R
  38. Sampling rate                            : 48.0 kHz
  39. Frame rate                               : 11.719 FPS (4096 SPF)
  40. Bit depth                                : 16 bits
  41. Compression mode                         : Lossless
  42. Stream size                              : 275 MiB (9%)
  43. Writing library                          : libFLAC 1.3.2 (UTC 2017-01-01)
  44. Language                                 : English
  45. Default                                  : Yes
  46. Forced                                   : No

  47. Audio #2
  48. ID                                       : 3
  49. Format                                   : AAC LC
  50. Format/Info                              : Advanced Audio Codec Low Complexity
  51. Codec ID                                 : A_AAC-2
  52. Duration                                 : 1 h 33 min
  53. Bit rate                                 : 105 kb/s
  54. Channel(s)                               : 2 channels
  55. Channel layout                           : L R
  56. Sampling rate                            : 48.0 kHz
  57. Frame rate                               : 46.875 FPS (1024 SPF)
  58. Compression mode                         : Lossy
  59. Delay relative to video                  : 9 ms
  60. Stream size                              : 70.0 MiB (2%)
  61. Title                                    : commentary
  62. Language                                 : English
  63. Default                                  : No
  64. Forced                                   : No

  65. Text #1
  66. ID                                       : 4
  67. Format                                   : PGS
  68. Muxing mode                              : zlib
  69. Codec ID                                 : S_HDMV/PGS
  70. Codec ID/Info                            : Picture based subtitle format used on BDs/HD-DVDs
  71. Duration                                 : 1 h 25 min
  72. Bit rate                                 : 17.1 kb/s
  73. Count of elements                        : 1691
  74. Stream size                              : 10.4 MiB (0%)
  75. Language                                 : English
  76. Default                                  : No
  77. Forced                                   : No

  78. Text #2
  79. ID                                       : 5
  80. Format                                   : PGS
  81. Muxing mode                              : zlib
  82. Codec ID                                 : S_HDMV/PGS
  83. Codec ID/Info                            : Picture based subtitle format used on BDs/HD-DVDs
  84. Duration                                 : 1 h 25 min
  85. Bit rate                                 : 19.1 kb/s
  86. Count of elements                        : 1642
  87. Stream size                              : 11.7 MiB (0%)
  88. Language                                 : German
  89. Default                                  : No
  90. Forced                                   : No

  91. Menu
  92. 00:00:00.000                             : :Kapitel 01
  93. 00:12:10.647                             : :Kapitel 02
  94. 00:15:55.538                             : :Kapitel 03
  95. 00:23:03.549                             : :Kapitel 04
  96. 00:29:13.168                             : :Kapitel 05
  97. 00:38:28.473                             : :Kapitel 06
  98. 00:50:31.987                             : :Kapitel 07
  99. 00:55:35.082                             : :Kapitel 08
  100. 01:03:09.786                             : :Kapitel 09
  101. 01:10:59.505                             : :Kapitel 10
  102. 01:18:48.349                             : :Kapitel 11
  103. 01:30:46.608                             : :Kapitel 12
复制代码



                                       
                                       

                                       
                                       
                                       




回复

使用道具 举报

懒得打字嘛,点击右侧快捷回复 【右侧内容,后台自定义】
您需要登录后才可以回帖 登录 | 立即加入

本版积分规则

Archiver|小黑屋| 蓝光电影网 |网站地图

Copyright © 2021 Comsenz Inc. Powered by 蓝光电影网

蓝光电影网

本站内容由用户自主分享和转载自互联网,转载目的在于传递更多信息,并不代表本网赞同其观点和对其真实性负责。

如有侵权、违反国家法律政策行为,请联系我们,我们会第一时间及时清除和处理!

举报反馈邮箱:[email protected]

快速回复 返回顶部 返回列表