找回密码

蓝光电影网

查看: 14|回复: 0

[喜剧] 恋爱恐惧/恋爱顽疾 Lovesick.2014.1080p.BluRay.x264-PSYCHD 5.46GB

[复制链接]
蓝光币
386
发表于 2020-8-19 21:30:24 | 显示全部楼层 |阅读模式
◎译  名 恋爱恐惧 / 恋爱顽疾 / 恋爱病
◎片  名 恋爱恐惧 Lovesick
◎年  代 2014
◎国  家 美国
◎类  别 笑剧 / 恋爱
◎语  言 英语
◎上映日期 2014-04-24(美国)
◎IMDb评分  5.2/10 from 2,669 users
◎IMDb链接  http://www.imdb.com/title/tt2404299/
◎豆瓣评分 5.8/10 from  users
◎豆瓣链接 https://movie.douban.com/subject/20444938/
◎片  长 85分钟
◎导  演 卢克·梅瑟尼
◎主  演 马特·勒布朗
      艾丽·拉特
      亚当·罗德里格兹
      阿什利·威廉姆斯
      丽贝卡·纳奥米·琼斯
      康妮·索耶
      卡梅隆·理查德森
      理查德·里尔
      瑞秋·哈里斯
      克莉丝汀·约翰斯顿
      切维·切斯
◎简  介

 
  The story of Charlie Darby, who has everything going for him: a great job, friends, family, the whole package. The one thing Charlie doesn't have is love, because every time he gets close, he goes clinically insane. When he meets the perfect girl, Charlie must overcome his psychosis to claim his chance at true love.
  1. Video
  2. ID                                       : 1
  3. Format                                   : AVC
  4. Format/Info                              : Advanced Video Codec
  5. Format profile                           : [email protected]
  6. Format settings                          : CABAC / 5 Ref Frames
  7. Format settings, CABAC                   : Yes
  8. Format settings, Reference frames        : 5 frames
  9. Codec ID                                 : V_MPEG4/ISO/AVC
  10. Duration                                 : 1 h 24 min
  11. Bit rate                                 : 8 586 kb/s
  12. Width                                    : 1 920 pixels
  13. Height                                   : 800 pixels
  14. Display aspect ratio                     : 2.40:1
  15. Frame rate mode                          : Constant
  16. Frame rate                               : 23.976 (24000/1001/189150) FPS
  17. Color space                              : YUV
  18. Chroma subsampling                       : 4:2:0
  19. Bit depth                                : 8 bits
  20. Scan type                                : Progressive
  21. Bits/(Pixel*Frame)                       : 0.233
  22. Stream size                              : 4.97 GiB (91%)
  23. Writing library                          : x264 core 148 r2579 73ae2d1
  24. Encoding settings                        : cabac=1 / ref=5 / deblock=1:-3:-3 / analyse=0x3:0x113 / me=umh / subme=8 / psy=1 / psy_rd=1.00:0.00 / mixed_ref=1 / me_range=16 / chroma_me=1 / trellis=1 / 8x8dct=1 / cqm=0 / deadzone=21,11 / fast_pskip=1 / chroma_qp_offset=-2 / threads=24 / lookahead_threads=4 / sliced_threads=0 / nr=0 / decimate=1 / interlaced=0 / bluray_compat=0 / constrained_intra=0 / bframes=3 / b_pyramid=2 / b_adapt=2 / b_bias=0 / direct=3 / weightb=1 / open_gop=0 / weightp=2 / keyint=240 / keyint_min=24 / scenecut=40 / intra_refresh=0 / rc=2pass / mbtree=0 / bitrate=8586 / ratetol=1.0 / qcomp=0.60 / qpmin=0 / qpmax=69 / qpstep=4 / cplxblur=20.0 / qblur=0.5 / ip_ratio=1.40 / pb_ratio=1.30 / aq=1:1.00
  25. Language                                 : English
  26. Default                                  : Yes
  27. Forced                                   : No

  28. Audio
  29. ID                                       : 2
  30. Format                                   : AC-3
  31. Format/Info                              : Audio Coding 3
  32. Commercial name                          : Dolby Digital
  33. Codec ID                                 : A_AC3
  34. Duration                                 : 1 h 24 min
  35. Bit rate mode                            : Constant
  36. Bit rate                                 : 640 kb/s
  37. Channel(s)                               : 6 channels
  38. Channel layout                           : L R C LFE Ls Rs
  39. Sampling rate                            : 48.0 kHz
  40. Frame rate                               : 31.250 FPS (1536 SPF)
  41. Compression mode                         : Lossy
  42. Stream size                              : 388 MiB (7%)
  43. Language                                 : English
  44. Service kind                             : Complete Main
  45. Default                                  : Yes
  46. Forced                                   : No

  47. Menu
  48. 00:00:00.000                             : en:00:00:00.000
  49. 00:12:54.899                             : en:00:12:54.899
  50. 00:23:01.589                             : en:00:23:01.589
  51. 00:38:59.671                             : en:00:38:59.671
  52. 00:52:49.750                             : en:00:52:49.750
  53. 01:01:57.464                             : en:01:01:57.464
  54. 01:12:10.785                             : en:01:12:10.785
  55. 01:20:45.549                             : en:01:20:45.549
复制代码






                                       
                                       

                                       
                                       
                                       




回复

使用道具 举报

懒得打字嘛,点击右侧快捷回复 【右侧内容,后台自定义】
您需要登录后才可以回帖 登录 | 立即加入

本版积分规则

Archiver|小黑屋| 蓝光电影网 |网站地图

Copyright © 2021 Comsenz Inc. Powered by 蓝光电影网

蓝光电影网

本站内容由用户自主分享和转载自互联网,转载目的在于传递更多信息,并不代表本网赞同其观点和对其真实性负责。

如有侵权、违反国家法律政策行为,请联系我们,我们会第一时间及时清除和处理!

举报反馈邮箱:[email protected]

快速回复 返回顶部 返回列表