找回密码

蓝光电影网

查看: 24|回复: 0

[恐怖] 黑百合小区 The.Complex.2013.JAPANESE.1080p.BluRay.x264-WiKi 8.74GB

[复制链接]
蓝光币
426
发表于 2020-12-6 09:57:33 | 显示全部楼层 |阅读模式


◎译  名 黑百合小区/The Complex/童咒(港)/黑百合公寓
◎片  名 クロユリ団地
◎年  代 2013
◎产  地 日本
◎类  别 可骇
◎语  言 日语
◎上映日期 2013-05-18(日本)
◎IMDb评分  5.1/10 from 1064 users
◎IMDb链接  https://www.imdb.com/title/tt2493466/
◎豆瓣评分 4.6/10 from 1851 users
◎豆瓣链接 https://movie.douban.com/subject/20273820/
◎片  长 106分钟
◎导  演 中田秀夫 Hideo Nakata
◎编  剧 三宅隆太 Ry?ta Miyake
◎主  演 前田敦子 Atsuko Maeda
       成宫宽贵 Hiroki Narimiya
       胜村政信 Masanobu Katsumura
       西田尚美 Naomi Nishida
       田中奏生 Tanaka Kanau
       筒井真理子 Mariko Tsutsui
       上间凛子 Mio Uema
       青山草太 Sota Aoyama
       吉仓葵 Aoi Yoshikura
       中村朝佳 Asaka Nakamura
◎标  签 可骇 | 日本电影 | 2013 | 惊悚 | 灵异 | 悬疑 | 映画 | 人性
◎简  介


  在一座被称为黑百合的室第区,老旧的设备和猩红的花朵散发着灭亡的气味。美丽女孩二宫明日香(前田敦子 饰)随怙恃、弟弟乔迁于此。只是她并未感应太多的高兴,隔邻筱崎老人(高桥昌也 饰)的房间经常发出不停于耳的闹铃声和希奇乐音,怙恃频频稳定的怪异言辞也为她带来更多的不安。第三天,明日香意外发现筱崎老人早已死去多日,现场的惨状以及未能实时发现情况令这个善良的女孩心里承受庞大的压力。借此机遇,她结识了专事遗物清算的青年笹原忍(成宫宽贵 饰)。持续不断的诡异事务使得她不能不依靠笹原。
  
  盘桓在小区漫空多年的可骇阴影,渐渐来临在明日香的身旁……
  1. Video
  2. ID                                       : 1
  3. Format                                   : AVC
  4. Format/Info                              : Advanced Video Codec
  5. Format profile                           : [email protected]
  6. Format settings                          : CABAC / 5 Ref Frames
  7. Format settings, CABAC                   : Yes
  8. Format settings, Reference frames        : 5 frames
  9. Codec ID                                 : V_MPEG4/ISO/AVC
  10. Duration                                 : 1 h 46 min
  11. Bit rate                                 : 11.1 Mb/s
  12. Width                                    : 1 920 pixels
  13. Height                                   : 800 pixels
  14. Display aspect ratio                     : 2.40:1
  15. Frame rate mode                          : Constant
  16. Frame rate                               : 23.976 (24000/1001/189150) FPS
  17. Color space                              : YUV
  18. Chroma subsampling                       : 4:2:0
  19. Bit depth                                : 8 bits
  20. Scan type                                : Progressive
  21. Bits/(Pixel*Frame)                       : 0.303
  22. Stream size                              : 8.27 GiB (95%)
  23. Writing library                          : x264 core 129 r2245+704+36 8e61944 tMod+MixAQ [[email protected]:2:0 X86_64]
  24. Encoding settings                        : cabac=1 / ref=5 / deblock=1:-3:-3 / analyse=0x3:0x133 / me=umh / subme=11 / psy=1 / fade_compensate=0.00 / psy_rd=1.05:0.10 / mixed_ref=1 / me_range=64 / chroma_me=1 / trellis=2 / 8x8dct=1 / cqm=0 / deadzone=21,11 / fast_pskip=0 / chroma_qp_offset=-3 / threads=18 / lookahead_threads=3 / sliced_threads=0 / nr=0 / decimate=1 / interlaced=0 / bluray_compat=0 / constrained_intra=0 / fgo=0 / bframes=8 / b_pyramid=2 / b_adapt=2 / b_bias=0 / direct=3 / weightb=1 / open_gop=0 / weightp=2 / keyint=250 / keyint_min=23 / scenecut=40 / intra_refresh=0 / rc=2pass / mbtree=0 / bitrate=11150 / ratetol=1.0 / qcomp=0.70 / qpmin=0 / qpmax=69 / qpstep=4 / cplxblur=20.0 / qblur=0.5 / ip_ratio=1.40 / pb_ratio=1.30 / aq=3 / aq-strength=0.90 / aq-sensitivity=10.00 / aq-ifactor=1.00 / aq-pfactor=1.00 / aq-bfactor=1.00 / aq2=0
  25. Language                                 : Japanese
  26. Default                                  : Yes
  27. Forced                                   : No

  28. Audio
  29. ID                                       : 2
  30. Format                                   : AC-3
  31. Format/Info                              : Audio Coding 3
  32. Commercial name                          : Dolby Digital
  33. Codec ID                                 : A_AC3
  34. Duration                                 : 1 h 46 min
  35. Bit rate mode                            : Constant
  36. Bit rate                                 : 640 kb/s
  37. Channel(s)                               : 6 channels
  38. Channel layout                           : L R C LFE Ls Rs
  39. Sampling rate                            : 48.0 kHz
  40. Frame rate                               : 31.250 FPS (1536 SPF)
  41. Compression mode                         : Lossy
  42. Stream size                              : 486 MiB (5%)
  43. Language                                 : Japanese
  44. Service kind                             : Complete Main
  45. Default                                  : Yes
  46. Forced                                   : No

  47. Text
  48. ID                                       : 3
  49. Format                                   : UTF-8
  50. Codec ID                                 : S_TEXT/UTF8
  51. Codec ID/Info                            : UTF-8 Plain Text
  52. Duration                                 : 1 h 41 min
  53. Bit rate                                 : 21 b/s
  54. Count of elements                        : 592
  55. Stream size                              : 15.7 KiB (0%)
  56. Language                                 : English
  57. Default                                  : Yes
  58. Forced                                   : No

  59. Menu
  60. 00:00:00.000                             : en:プロローグ
  61. 00:03:18.114                             : en:隣人
  62. 00:08:14.619                             : en:物音
  63. 00:17:38.932                             : en:ミノル
  64. 00:21:53.311                             : en:老人
  65. 00:31:48.740                             : en:清掃
  66. 00:42:11.153                             : en:声
  67. 00:51:50.524                             : en:過去
  68. 01:06:49.505                             : en:悲劇
  69. 01:22:07.464                             : en:対峙
  70. 01:40:25.602                             : en:家属
  71. 01:42:52.833                             : en:エンドクレジット
复制代码





                                       
                                       

                                       
                                       
                                       




回复

使用道具 举报

懒得打字嘛,点击右侧快捷回复 【右侧内容,后台自定义】
您需要登录后才可以回帖 登录 | 立即加入

本版积分规则

Archiver|小黑屋| 蓝光电影网 |网站地图

Copyright © 2021 Comsenz Inc. Powered by 蓝光电影网

蓝光电影网

本站内容由用户自主分享和转载自互联网,转载目的在于传递更多信息,并不代表本网赞同其观点和对其真实性负责。

如有侵权、违反国家法律政策行为,请联系我们,我们会第一时间及时清除和处理!

举报反馈邮箱:[email protected]

快速回复 返回顶部 返回列表