找回密码

蓝光电影网

查看: 79|回复: 0

[科幻] 魔鬼的仪式 The.Satanic.Rites.of.Dracula.1973.1080p.BluRay.x264-PSYCHD 8.75GB

[复制链接]
蓝光币
519
发表于 2020-11-10 12:00:59 | 显示全部楼层 |阅读模式


◎译  名 魔鬼的仪式
◎片  名 The Satanic Rites of Dracula
◎年  代 1973
◎产  地 英国
◎类  别 科幻 / 可骇
◎语  言 英语
◎上映日期 1973-11-03
◎IMDb评分  5.6/10 from 5288 users
◎IMDb链接  https://www.imdb.com/title/tt0070634/
◎豆瓣评分 /10 from 0 users
◎豆瓣链接 https://movie.douban.com/subject/1300499/
◎片  长 87 分钟
◎导  演 艾伦·吉布森 Alan Gibson
◎主  演 克里斯托弗·李 Christopher Lee
       彼得·库欣 Peter Cushing
       Michael Coles
       弗雷迪·琼斯 Freddie Jones
       乔安娜·林莉 Joanna Lumley
       Pauline Peart
       Valerie Van Ost
       理查德·弗农 Richard Vernon
       Lockwood West
       Marc Zuber
       John Harvey
       威廉·富兰克林 William Franklyn
       帕特里克·巴尔 Patrick Barr
◎标  签 英国 | 吸血鬼 | 惊悚 | 可骇 | tehPARADOX | 乔安娜·林莉 | x264 | PeterCushing
◎简  介


  暂无相关剧情先容
  1. Video
  2. ID                                       : 1
  3. Format                                   : AVC
  4. Format/Info                              : Advanced Video Codec
  5. Format profile                           : [email protected]
  6. Format settings                          : CABAC / 4 Ref Frames
  7. Format settings, CABAC                   : Yes
  8. Format settings, Reference frames        : 4 frames
  9. Codec ID                                 : V_MPEG4/ISO/AVC
  10. Duration                                 : 1 h 27 min
  11. Bit rate                                 : 12.8 Mb/s
  12. Width                                    : 1 920 pixels
  13. Height                                   : 1 080 pixels
  14. Display aspect ratio                     : 16:9
  15. Frame rate mode                          : Constant
  16. Frame rate                               : 23.976 (24000/1001/189150) FPS
  17. Color space                              : YUV
  18. Chroma subsampling                       : 4:2:0
  19. Bit depth                                : 8 bits
  20. Scan type                                : Progressive
  21. Bits/(Pixel*Frame)                       : 0.257
  22. Stream size                              : 7.65 GiB (87%)
  23. Writing library                          : x264 core 157 r2970 5493be8
  24. Encoding settings                        : cabac=1 / ref=4 / deblock=1:-3:-3 / analyse=0x3:0x113 / me=umh / subme=8 / psy=1 / psy_rd=1.10:0.00 / mixed_ref=1 / me_range=32 / chroma_me=1 / trellis=2 / 8x8dct=1 / cqm=0 / deadzone=21,11 / fast_pskip=1 / chroma_qp_offset=-2 / threads=34 / lookahead_threads=5 / sliced_threads=0 / nr=0 / decimate=1 / interlaced=0 / bluray_compat=0 / constrained_intra=0 / bframes=3 / b_pyramid=2 / b_adapt=2 / b_bias=0 / direct=3 / weightb=1 / open_gop=0 / weightp=2 / keyint=240 / keyint_min=24 / scenecut=40 / intra_refresh=0 / rc_lookahead=50 / rc=2pass / mbtree=1 / bitrate=12754 / ratetol=1.0 / qcomp=0.60 / qpmin=0 / qpmax=69 / qpstep=4 / cplxblur=20.0 / qblur=0.5 / ip_ratio=1.40 / aq=3:0.70
  25. Default                                  : Yes
  26. Forced                                   : No
  27. Statistics Tags Issue                    : no_variable_data 1970-01-01 00:00:00 / no_variable_data 2010-02-22 21:41:29
  28. FromStats_BitRate                        : 12751496
  29. FromStats_Duration                       : 01:27:46.386000000
  30. FromStats_FrameCount                     : 126267
  31. FromStats_StreamSize                     : 8394287875

  32. Audio
  33. ID                                       : 2
  34. Format                                   : DTS
  35. Format/Info                              : Digital Theater Systems
  36. Codec ID                                 : A_DTS
  37. Duration                                 : 1 h 27 min
  38. Bit rate mode                            : Constant
  39. Bit rate                                 : 1 509 kb/s
  40. Channel(s)                               : 2 channels
  41. Channel layout                           : L R
  42. Sampling rate                            : 48.0 kHz
  43. Frame rate                               : 93.750 FPS (512 SPF)
  44. Bit depth                                : 24 bits
  45. Compression mode                         : Lossy
  46. Stream size                              : 947 MiB (11%)
  47. Language                                 : English
  48. Default                                  : Yes
  49. Forced                                   : No
  50. Statistics Tags Issue                    : no_variable_data 1970-01-01 00:00:00 / no_variable_data 2010-02-22 21:41:29
  51. FromStats_BitRate                        : 1508999
  52. FromStats_Duration                       : 01:27:46.411000000
  53. FromStats_FrameCount                     : 493726
  54. FromStats_StreamSize                     : 993376712

  55. Text #1
  56. ID                                       : 3
  57. Format                                   : UTF-8
  58. Codec ID                                 : S_TEXT/UTF8
  59. Codec ID/Info                            : UTF-8 Plain Text
  60. Language                                 : English
  61. Default                                  : No
  62. Forced                                   : No
  63. Statistics Tags Issue                    : no_variable_data 1970-01-01 00:00:00 / no_variable_data 2010-02-22 21:41:29
  64. FromStats_BitRate                        : 42
  65. FromStats_Duration                       : 01:22:02.084000000
  66. FromStats_FrameCount                     : 812
  67. FromStats_StreamSize                     : 25948

  68. Text #2
  69. ID                                       : 4
  70. Format                                   : UTF-8
  71. Codec ID                                 : S_TEXT/UTF8
  72. Codec ID/Info                            : UTF-8 Plain Text
  73. Title                                    : SDH
  74. Language                                 : English
  75. Default                                  : No
  76. Forced                                   : No
  77. Statistics Tags Issue                    : no_variable_data 1970-01-01 00:00:00 / no_variable_data 2010-02-22 21:41:29
  78. FromStats_BitRate                        : 42
  79. FromStats_Duration                       : 01:26:36.399000000
  80. FromStats_FrameCount                     : 901
  81. FromStats_StreamSize                     : 27352

  82. Menu
  83. 00:00:00.000                             : en:Chapter 01
  84. 00:02:19.890                             : en:Chapter 02
  85. 00:05:24.574                             : en:Chapter 03
  86. 00:07:58.770                             : en:Chapter 04
  87. 00:10:10.068                             : en:Chapter 05
  88. 00:12:48.893                             : en:Chapter 06
  89. 00:17:59.203                             : en:Chapter 07
  90. 00:19:26.874                             : en:Chapter 08
  91. 00:21:05.931                             : en:Chapter 09
  92. 00:26:29.880                             : en:Chapter 10
  93. 00:30:49.681                             : en:Chapter 11
  94. 00:32:54.389                             : en:Chapter 12
  95. 00:37:57.358                             : en:Chapter 13
  96. 00:40:43.274                             : en:Chapter 14
  97. 00:44:10.940                             : en:Chapter 15
  98. 00:47:19.378                             : en:Chapter 16
  99. 00:52:08.083                             : en:Chapter 17
  100. 00:55:04.092                             : en:Chapter 18
  101. 00:57:11.303                             : en:Chapter 19
  102. 01:01:15.463                             : en:Chapter 20
  103. 01:05:02.107                             : en:Chapter 21
  104. 01:07:33.007                             : en:Chapter 22
  105. 01:11:10.224                             : en:Chapter 23
  106. 01:14:20.915                             : en:Chapter 24
  107. 01:18:29.830                             : en:Chapter 25
  108. 01:21:46.193                             : en:Chapter 26
  109. 01:26:41.822                             : en:Chapter 27
复制代码



                                       
                                       

                                       
                                       
                                       




回复

使用道具 举报

懒得打字嘛,点击右侧快捷回复 【右侧内容,后台自定义】
您需要登录后才可以回帖 登录 | 立即加入

本版积分规则

Archiver|小黑屋| 蓝光电影网 |网站地图

Copyright © 2021 Comsenz Inc. Powered by 蓝光电影网

蓝光电影网

本站内容由用户自主分享和转载自互联网,转载目的在于传递更多信息,并不代表本网赞同其观点和对其真实性负责。

如有侵权、违反国家法律政策行为,请联系我们,我们会第一时间及时清除和处理!

举报反馈邮箱:[email protected]

快速回复 返回顶部 返回列表