找回密码

蓝光电影网

查看: 15|回复: 0

[动作] 扎克·施奈德版正义联盟 Justice.League.Snyders.Cut.2021.1080p.BluRay.x264.DTS-FGT 22.01GB

[复制链接]
蓝光币
382
发表于 2021-5-18 18:16:35 | 显示全部楼层 |阅读模式
[img][/img]

◎译  名 扎克·施奈德版正义同盟/Justice League Snyder Cut/查克·史奈德之正义同盟(台)/正义同盟 扎克·施奈德导演剪辑版/正义同盟:扎克·施耐德版/正义同盟导演剪辑版
◎片  名 Zack Snyder's Justice League
◎年  代 2021
◎产  地 美国
◎类  别 行动 / 科幻 / 奇异 / 冒险
◎语  言 英语
◎上映日期 2021-03-18(美国) / 2021-05-03(中国大陆收集)
◎豆瓣评分 8.3/10 from 187687 users
◎豆瓣链接 https://movie.douban.com/subject/35076714/
◎片  长 242分钟
◎导  演 扎克·施奈德 Zack Snyder
◎编  剧 扎克·施奈德 Zack Snyder / 克里斯·特里奥 Chris Terrio / 威尔·比尔 Will Beall / 杰里·西格尔 Jerry Siegel / 乔·舒斯特 Joe Shuster
◎主  演 本·阿弗莱克 Ben Affleck
       亨利·卡维尔 Henry Cavill
       盖尔·加朵 Gal Gadot
       杰森·莫玛 Jason Momoa
       埃兹拉·米勒 Ezra Miller
       雷·费舍尔 Ray Fisher
       艾米·亚当斯 Amy Adams
       威廉·达福 Willem Dafoe
       杰西·艾森伯格 Jesse Eisenberg
       杰瑞米·艾恩斯 Jeremy Irons
       戴安·琳恩 Diane Lane
       康妮·尼尔森 Connie Nielsen
       J·K·西蒙斯 J.K. Simmons
       塞伦·希德 Ciarán Hinds
       郑恺 Kai Zheng
       艾梅柏·希尔德 Amber Heard
       乔·莫顿 Joe Morton
       丽莎·洛文·孔斯利 Lisa Loven Kongsli
       大卫·休里斯 David Thewlis
       安·奥戈博莫 Ann Ogbomo
       奥古斯塔·艾娃·艾伦德斯杜提尔 ágústa Eva Erlendsdóttir
       克里斯特比约格·凯尔德 Kristbj?rg Kjeld
       英格瓦·埃盖特·西古德松 Ingvar Eggert Siguresson
       马克·麦克卢尔 Marc McClure
       迈克尔·麦克埃尔哈顿 Michael McElhatton
       约翰·达格尔什 John Dagleish
       拉腊·德坎罗 Lara Decaro
       罗比·基 Robbie Gee
       吉姆·斯图格恩 Jim Sturgeon
       杜晨·科洛斯 Doutzen Kroes
       埃莉诺·松浦 Eleanor Matsuura
       萨曼塔·若 Samantha Jo
       布鲁克恩斯 Brooke Ence
       杰罗姆·普拉顿 Jér?me Pradon
       理查德·克里弗特 Richard Clifford
       文森特·里奥特 Vincent Riotta
       马克·阿诺德 Mark Arnold
       彼得·吉尼斯 Peter Guinness
       赛吉·康斯坦斯 Sergi Constance
       奥萝尔·劳泽瑞尔 Aurore Lauzeral
       朱利安·刘易斯·琼斯 Julian Lewis Jones
       雷·波特 Ray Porter
       弗朗西斯·麦基 Francis Magee
       科雷西·克莱门斯 Kiersey Clemons
       露西·布莱尔斯 Lucy Briers
       威尔·柯班 Wil Coban
       凯伦·布莱森 Karen Bryson
       克里斯蒂·梅尔 Christy Meyer
       吉安皮罗·科格诺利 Gianpiero Cognoli
       寇布勒·霍尔德布鲁克-史姑娘 Kobna Holdbrook-Smith
       凯文·马图林 Kevin Mathurin
       泰勒·詹姆斯 Taylor James
       布鲁斯·钟 Bruce Chong
       奥赖恩·李 Orion Lee
       奥利弗·加茨 Oliver Gatz
       凯莉·波尔克 Kelly Burke
       奥利弗·鲍威尔 Oliver Powell
       哈里·伦尼克斯 Harry Lennix
       欧米·罗斯 Omri Rose
       萨姆·本杰明 Sam Benjamin
       卡拉·古奇诺 Carla Gugino
       罗素·克劳 Russell Crowe
       扎克·施奈德 Zack Snyder
       杰瑞德·莱托 Jared Leto
       罗宾·怀特 Robin Wright
       比利·克鲁德普 Billy Crudup
       乔·曼根尼罗 Joe Manganiello
       斯沃里·拉格纳内 Swaylee Loughnane
       安德鲁·G·奥格尔比 Andrew G. Ogleby
       山姆·威克斯 Sam Weeks
       Salóme Gunnarsdóttir
◎标  签 DC | 正义同盟 | 扎克施奈德 | 导演剪辑版 | 科幻 | 2021 | 漫画改编 | 美国
◎简  介


  布鲁斯·韦恩(本·阿弗莱克饰)为了确保不让超人(亨利·卡维尔饰)白白牺牲,他决议与戴安娜·普林斯(盖尔·加朵饰)联手并计划招募一支超才能者团队来庇护天下免遭行将到来的灾难性威胁。但这项使命比布鲁斯设想中要困难,由于每位成员都必须面临并跨越自己曩昔的心魔,团结起来,终极构成一个史无前例的豪杰同盟。 蝙蝠侠、奇异女侠、海王(杰森·莫玛饰)、钢骨(雷·费舍饰)、闪电侠(埃兹拉·米勒饰)现在必须结合起来,否则就没法阻止荒原狼(塞伦·希德饰)、狄萨德(彼得·吉尼斯饰)以及达克赛德(雷·波特饰)扑灭地球的可怕计划。
  1. Video
  2. ID                                       : 1
  3. Format                                   : AVC
  4. Format/Info                              : Advanced Video Codec
  5. Format profile                           : [email protected]
  6. Format settings                          : CABAC / 4 Ref Frames
  7. Format settings, CABAC                   : Yes
  8. Format settings, Reference frames        : 4 frames
  9. Codec ID                                 : V_MPEG4/ISO/AVC
  10. Duration                                 : 4 h 2 min
  11. Bit rate                                 : 11.5 Mb/s
  12. Width                                    : 1 440 pixels
  13. Height                                   : 1 080 pixels
  14. Display aspect ratio                     : 4:3
  15. Frame rate mode                          : Constant
  16. Frame rate                               : 23.976 (24000/1001/189150) FPS
  17. Color space                              : YUV
  18. Chroma subsampling                       : 4:2:0
  19. Bit depth                                : 8 bits
  20. Scan type                                : Progressive
  21. Bits/(Pixel*Frame)                       : 0.308
  22. Stream size                              : 19.5 GiB (88%)
  23. Writing library                          : x264 core 148 r2748 97eaef2
  24. Encoding settings                        : cabac=1 / ref=4 / deblock=1:-2:-2 / analyse=0x3:0x113 / me=umh / subme=9 / psy=1 / psy_rd=1.00:0.15 / mixed_ref=1 / me_range=16 / chroma_me=1 / trellis=2 / 8x8dct=1 / cqm=0 / deadzone=21,11 / fast_pskip=1 / chroma_qp_offset=-3 / threads=72 / lookahead_threads=3 / sliced_threads=0 / nr=0 / decimate=1 / interlaced=0 / bluray_compat=0 / constrained_intra=0 / bframes=3 / b_pyramid=2 / b_adapt=1 / b_bias=0 / direct=3 / weightb=1 / open_gop=0 / weightp=2 / keyint=250 / keyint_min=25 / scenecut=40 / intra_refresh=0 / rc_lookahead=50 / rc=2pass / mbtree=1 / bitrate=11500 / ratetol=1.0 / qcomp=0.60 / qpmin=0 / qpmax=69 / qpstep=4 / cplxblur=20.0 / qblur=0.5 / vbv_maxrate=31250 / vbv_bufsize=31250 / nal_hrd=none / filler=0 / ip_ratio=1.40 / aq=1:1.00
  25. Language                                 : English
  26. Default                                  : Yes
  27. Forced                                   : No
  28. Audio
  29. ID                                       : 2
  30. Format                                   : DTS
  31. Format/Info                              : Digital Theater Systems
  32. Codec ID                                 : A_DTS
  33. Duration                                 : 4 h 2 min
  34. Bit rate mode                            : Constant
  35. Bit rate                                 : 1 509 kb/s
  36. Channel(s)                               : 6 channels
  37. Channel layout                           : C L R Ls Rs LFE
  38. Sampling rate                            : 48.0 kHz
  39. Frame rate                               : 93.750 FPS (512 SPF)
  40. Bit depth                                : 24 bits
  41. Compression mode                         : Lossy
  42. Stream size                              : 2.55 GiB (12%)
  43. Language                                 : English
  44. Default                                  : Yes
  45. Forced                                   : No
  46. Text
  47. ID                                       : 3
  48. Format                                   : UTF-8
  49. Codec ID                                 : S_TEXT/UTF8
  50. Codec ID/Info                            : UTF-8 Plain Text
  51. Duration                                 : 3 h 55 min
  52. Bit rate                                 : 31 b/s
  53. Count of elements                        : 2047
  54. Stream size                              : 54.3 KiB (0%)
  55. Title                                    : English-SRT
  56. Language                                 : English
  57. Default                                  : Yes
  58. Forced                                   : No
  59. Menu
  60. 00:00:00.000                             : Chapter 01
  61. 00:08:54.909                             : Chapter 02
  62. 00:19:56.737                             : Chapter 03
  63. 00:36:54.503                             : Chapter 04
  64. 00:41:32.031                             : Chapter 05
  65. 00:50:18.640                             : Chapter 06
  66. 00:58:42.435                             : Chapter 07
  67. 01:08:35.569                             : Chapter 08
  68. 01:20:27.823                             : Chapter 09
  69. 01:30:05.024                             : Chapter 10
  70. 01:40:28.313                             : Chapter 11
  71. 01:51:24.010                             : Chapter 12
  72. 01:59:06.931                             : Chapter 13
  73. 02:07:56.293                             : Chapter 14
  74. 02:21:58.528                             : Chapter 01
  75. 02:29:49.915                             : Chapter 02
  76. 02:37:27.289                             : Chapter 03
  77. 02:48:36.374                             : Chapter 04
  78. 02:53:19.532                             : Chapter 05
  79. 03:09:54.109                             : Chapter 06
  80. 03:21:28.844                             : Chapter 07
  81. 03:34:12.858                             : Chapter 08
  82. 03:40:10.048                             : Chapter 09
  83. 03:50:47.476                             : Chapter 10
复制代码




                                       
                                       

                                       
                                       
                                       




回复

使用道具 举报

懒得打字嘛,点击右侧快捷回复 【右侧内容,后台自定义】
您需要登录后才可以回帖 登录 | 立即加入

本版积分规则

Archiver|小黑屋| 蓝光电影网 |网站地图

Copyright © 2021 Comsenz Inc. Powered by 蓝光电影网

蓝光电影网

本站内容由用户自主分享和转载自互联网,转载目的在于传递更多信息,并不代表本网赞同其观点和对其真实性负责。

如有侵权、违反国家法律政策行为,请联系我们,我们会第一时间及时清除和处理!

举报反馈邮箱:[email protected]

快速回复 返回顶部 返回列表