找回密码

蓝光电影网

查看: 19|回复: 0

[动作] 血色宝石/血石 Bloodstone.1988.720p.BluRay.x264-SNOW 6.69GB

[复制链接]
蓝光币
382
发表于 2020-8-6 08:48:31 | 显示全部楼层 |阅读模式


◎译  名 赤色宝石 / 血石 / 赤色皇冠
◎片  名 Bloodstone
◎年  代 1988
◎产  地 美国 / 印度
◎类  别 行动 / 冒险
◎语  言 英语
◎上映日期 1988-10-07
◎IMDb评分  4.2/10 from 586 users
◎IMDb链接  https://www.imdb.com/title/tt0094765
◎豆瓣评分 0/10 from 0 users
◎豆瓣链接 https://movie.douban.com/subject/3420903/
◎导  演 德怀特·利特尔 Dwight H. Little
◎编  剧 尼可·马斯托拉奇斯 Nico Mastorakis
◎主  演 Brett Stimely
       Rajinikanth
       Anna Nicholas

◎标  签 印度 | 行动 | 冒险 | 1988 | 美国 | 电影 | 记号 | 妖妖舞
◎简  介

  
  1221年,印度公主莫拉丧生,在举行葬时她桂冠上的血宝石留了下来。多年来,为了寻觅血宝石,几多报酬她支出灭亡的价格。但是探险家、军方、警方为了夺取代价连城的血宝石,展开了不竭的争斗抵触。终极,国宝会落入谁手,而它究竟有什么奥秘的力一,背后又隐藏着什么奥秘,用几多人的灭亡才能获得答案……
  1. Video
  2. ID                                       : 1
  3. Format                                   : AVC
  4. Format/Info                              : Advanced Video Codec
  5. Format profile                           : [email protected]
  6. Format settings                          : CABAC / 8 Ref Frames
  7. Format settings, CABAC                   : Yes
  8. Format settings, Reference frames        : 8 frames
  9. Codec ID                                 : V_MPEG4/ISO/AVC
  10. Duration                                 : 1 h 30 min
  11. Bit rate                                 : 9 719 kb/s
  12. Width                                    : 1 280 pixels
  13. Height                                   : 692 pixels
  14. Display aspect ratio                     : 1.85:1
  15. Frame rate mode                          : Constant
  16. Frame rate                               : 23.976 (24000/1001/189150) FPS
  17. Color space                              : YUV
  18. Chroma subsampling                       : 4:2:0
  19. Bit depth                                : 8 bits
  20. Scan type                                : Progressive
  21. Bits/(Pixel*Frame)                       : 0.458
  22. Stream size                              : 6.14 GiB (92%)
  23. Writing library                          : x264 core 161 r3018 db0d417
  24. Encoding settings                        : cabac=1 / ref=8 / deblock=1:-3:-3 / analyse=0x3:0x133 / me=umh / subme=9 / psy=1 / psy_rd=1.00:0.00 / mixed_ref=1 / me_range=16 / chroma_me=1 / trellis=2 / 8x8dct=1 / cqm=0 / deadzone=21,11 / fast_pskip=0 / chroma_qp_offset=-2 / threads=24 / lookahead_threads=2 / sliced_threads=0 / nr=0 / decimate=0 / interlaced=0 / bluray_compat=0 / constrained_intra=0 / bframes=3 / b_pyramid=2 / b_adapt=2 / b_bias=0 / direct=3 / weightb=1 / open_gop=0 / weightp=2 / keyint=250 / keyint_min=23 / scenecut=40 / intra_refresh=0 / rc=crf / mbtree=0 / crf=20.0 / qcomp=0.60 / qpmin=0 / qpmax=69 / qpstep=4 / ip_ratio=1.40 / pb_ratio=1.30 / aq=3:0.70
  25. Language                                 : English
  26. Default                                  : Yes
  27. Forced                                   : No
  28. Color range                              : Limited
  29. Matrix coefficients                      : BT.709

  30. Audio #1
  31. ID                                       : 2
  32. Format                                   : AC-3
  33. Format/Info                              : Audio Coding 3
  34. Commercial name                          : Dolby Digital
  35. Codec ID                                 : A_AC3
  36. Duration                                 : 1 h 30 min
  37. Bit rate mode                            : Constant
  38. Bit rate                                 : 640 kb/s
  39. Channel(s)                               : 6 channels
  40. Channel layout                           : L R C LFE Ls Rs
  41. Sampling rate                            : 48.0 kHz
  42. Frame rate                               : 31.250 FPS (1536 SPF)
  43. Bit depth                                : 16 bits
  44. Compression mode                         : Lossy
  45. Stream size                              : 414 MiB (6%)
  46. Language                                 : English
  47. Service kind                             : Complete Main
  48. Default                                  : Yes
  49. Forced                                   : No

  50. Audio #2
  51. ID                                       : 3
  52. Format                                   : AAC LC
  53. Format/Info                              : Advanced Audio Codec Low Complexity
  54. Codec ID                                 : A_AAC-2
  55. Duration                                 : 1 h 30 min
  56. Bit rate                                 : 112 kb/s
  57. Channel(s)                               : 2 channels
  58. Channel layout                           : L R
  59. Sampling rate                            : 48.0 kHz
  60. Frame rate                               : 46.875 FPS (1024 SPF)
  61. Compression mode                         : Lossy
  62. Delay relative to video                  : 20 ms
  63. Stream size                              : 72.5 MiB (1%)
  64. Title                                    : Commentary by Dwight H. Little & Michael Felsher
  65. Language                                 : English
  66. Default                                  : No
  67. Forced                                   : No

  68. Audio #3
  69. ID                                       : 4
  70. Format                                   : AAC LC
  71. Format/Info                              : Advanced Audio Codec Low Complexity
  72. Codec ID                                 : A_AAC-2
  73. Duration                                 : 1 h 30 min
  74. Bit rate                                 : 106 kb/s
  75. Channel(s)                               : 2 channels
  76. Channel layout                           : L R
  77. Sampling rate                            : 48.0 kHz
  78. Frame rate                               : 46.875 FPS (1024 SPF)
  79. Compression mode                         : Lossy
  80. Delay relative to video                  : 20 ms
  81. Stream size                              : 68.7 MiB (1%)
  82. Title                                    : Commentary by Bryan Reesman
  83. Language                                 : English
  84. Default                                  : No
  85. Forced                                   : No

  86. Text #1
  87. ID                                       : 5
  88. Format                                   : UTF-8
  89. Codec ID                                 : S_TEXT/UTF8
  90. Codec ID/Info                            : UTF-8 Plain Text
  91. Duration                                 : 1 h 24 min
  92. Bit rate                                 : 43 b/s
  93. Count of elements                        : 769
  94. Stream size                              : 26.8 KiB (0%)
  95. Title                                    : English
  96. Language                                 : English
  97. Default                                  : No
  98. Forced                                   : No

  99. Text #2
  100. ID                                       : 6
  101. Format                                   : UTF-8
  102. Codec ID                                 : S_TEXT/UTF8
  103. Codec ID/Info                            : UTF-8 Plain Text
  104. Duration                                 : 1 h 27 min
  105. Bit rate                                 : 46 b/s
  106. Count of elements                        : 867
  107. Stream size                              : 29.7 KiB (0%)
  108. Title                                    : English (SDH)
  109. Language                                 : English
  110. Default                                  : No
  111. Forced                                   : No

  112. Text #3
  113. ID                                       : 7
  114. Format                                   : PGS
  115. Muxing mode                              : zlib
  116. Codec ID                                 : S_HDMV/PGS
  117. Codec ID/Info                            : Picture based subtitle format used on BDs/HD-DVDs
  118. Duration                                 : 1 h 27 min
  119. Bit rate                                 : 26.0 kb/s
  120. Count of elements                        : 1734
  121. Stream size                              : 16.4 MiB (0%)
  122. Title                                    : English (SDH SUP)
  123. Language                                 : English
  124. Default                                  : No
  125. Forced                                   : No

  126. Text #4
  127. ID                                       : 8
  128. Format                                   : PGS
  129. Muxing mode                              : zlib
  130. Codec ID                                 : S_HDMV/PGS
  131. Codec ID/Info                            : Picture based subtitle format used on BDs/HD-DVDs
  132. Duration                                 : 1 h 26 min
  133. Bit rate                                 : 21.5 kb/s
  134. Count of elements                        : 1506
  135. Stream size                              : 13.3 MiB (0%)
  136. Title                                    : Greek (SUP)
  137. Language                                 : Greek
  138. Default                                  : No
  139. Forced                                   : No

  140. Menu
  141. 00:00:00.000                             : en:Chapter 01
  142. 00:05:57.691                             : en:Chapter 02
  143. 00:15:17.041                             : en:Chapter 03
  144. 00:21:51.435                             : en:Chapter 04
  145. 00:30:48.847                             : en:Chapter 05
  146. 00:37:15.024                             : en:Chapter 06
  147. 00:44:35.882                             : en:Chapter 07
  148. 00:52:18.302                             : en:Chapter 08
  149. 01:00:05.602                             : en:Chapter 09
  150. 01:07:24.082                             : en:Chapter 10
  151. 01:15:18.931                             : en:Chapter 11
  152. 01:22:16.098                             : en:Chapter 12
复制代码




                                       
                                       

                                       
                                       
                                       




回复

使用道具 举报

懒得打字嘛,点击右侧快捷回复 【右侧内容,后台自定义】
您需要登录后才可以回帖 登录 | 立即加入

本版积分规则

Archiver|小黑屋| 蓝光电影网 |网站地图

Copyright © 2021 Comsenz Inc. Powered by 蓝光电影网

蓝光电影网

本站内容由用户自主分享和转载自互联网,转载目的在于传递更多信息,并不代表本网赞同其观点和对其真实性负责。

如有侵权、违反国家法律政策行为,请联系我们,我们会第一时间及时清除和处理!

举报反馈邮箱:[email protected]

快速回复 返回顶部 返回列表