找回密码

蓝光电影网

查看: 18|回复: 0

[恐怖] 恶作剧 Hoax.2019.UNCUT.1080p.BluRay.x264-GETiT 4.76GB

[复制链接]
蓝光币
382
发表于 2020-12-6 08:41:54 | 显示全部楼层 |阅读模式


◎译  名 恶作剧
◎片  名 Hoax
◎年  代 2019
◎产  地 美国
◎类  别 可骇
◎语  言 英语
◎上映日期 2019-08-20(美国)
◎IMDb评分  3.9/10 from 583 users
◎IMDb链接  https://www.imdb.com/title/tt5580688/
◎豆瓣评分 /10 from 0 users
◎豆瓣链接 https://movie.douban.com/subject/26965002/
◎片  长 90分钟
◎导  演 马特·艾伦 Matt Allen
◎编  剧 马特·艾伦 Matt Allen
◎主  演 阿德里安娜·巴比欧 Adrienne Barbeau
       布莱恩·汤普森 Brian Thompson
       本·布劳德 Ben Browder
       小丝哈娜·布什 Shoshana Bush
       哈契·达诺 Hutch Dano
       安东尼雷派克 Anthony Ray Parker
       马特·雷迪 Matt Riedy
       克里斯托弗·索伦·凯利 Christopher Soren Kelly
       瑞恩·李 Ryan Lee
       布莱恩·兰迪斯·福尔金斯 Brian Landis Folkins
◎标  签 美国电影 | 可骇 | [歐美]
◎简  介


  An investigation into a camping trip gone wrong turns into a fight for survival when a team, including a brilliant primate specialist and led by a ruthless television producer, must come to grips with the possible existence of Bigfoot.
  1. Video
  2. ID                                       : 1
  3. Format                                   : AVC
  4. Format/Info                              : Advanced Video Codec
  5. Format profile                           : [email protected]
  6. Format settings                          : CABAC / 5 Ref Frames
  7. Format settings, CABAC                   : Yes
  8. Format settings, Reference frames        : 5 frames
  9. Codec ID                                 : V_MPEG4/ISO/AVC
  10. Duration                                 : 1 h 35 min
  11. Bit rate                                 : 5 650 kb/s
  12. Width                                    : 1 920 pixels
  13. Height                                   : 804 pixels
  14. Display aspect ratio                     : 2.40:1
  15. Frame rate mode                          : Constant
  16. Frame rate                               : 23.976 (24000/1001/189150) FPS
  17. Color space                              : YUV
  18. Chroma subsampling                       : 4:2:0
  19. Bit depth                                : 8 bits
  20. Scan type                                : Progressive
  21. Bits/(Pixel*Frame)                       : 0.153
  22. Stream size                              : 3.78 GiB (80%)
  23. Writing library                          : x264 core 161 r3018 db0d417
  24. Encoding settings                        : cabac=1 / ref=5 / deblock=1:-3:-3 / analyse=0x3:0x133 / me=umh / subme=9 / psy=1 / psy_rd=1.00:0.00 / mixed_ref=1 / me_range=16 / chroma_me=1 / trellis=2 / 8x8dct=1 / cqm=0 / deadzone=21,11 / fast_pskip=1 / chroma_qp_offset=-2 / threads=24 / lookahead_threads=2 / sliced_threads=0 / nr=0 / decimate=1 / interlaced=0 / bluray_compat=0 / constrained_intra=0 / bframes=3 / b_pyramid=2 / b_adapt=2 / b_bias=0 / direct=3 / weightb=1 / open_gop=0 / weightp=2 / keyint=250 / keyint_min=23 / scenecut=40 / intra_refresh=0 / rc_lookahead=60 / rc=crf / mbtree=1 / crf=17.0 / qcomp=0.60 / qpmin=0 / qpmax=69 / qpstep=4 / ip_ratio=1.40 / aq=3:0.80
  25. Language                                 : English
  26. Default                                  : Yes
  27. Forced                                   : No
  28. Color range                              : Limited
  29. Matrix coefficients                      : BT.709

  30. Audio
  31. ID                                       : 2
  32. Format                                   : DTS XLL
  33. Format/Info                              : Digital Theater Systems
  34. Commercial name                          : DTS-HD Master Audio
  35. Codec ID                                 : A_DTS
  36. Duration                                 : 1 h 35 min
  37. Bit rate mode                            : Variable
  38. Bit rate                                 : 1 445 kb/s
  39. Channel(s)                               : 6 channels
  40. Channel layout                           : C L R Ls Rs LFE
  41. Sampling rate                            : 48.0 kHz
  42. Frame rate                               : 93.750 FPS (512 SPF)
  43. Bit depth                                : 16 bits
  44. Compression mode                         : Lossless
  45. Stream size                              : 991 MiB (20%)
  46. Title                                    : dts
  47. Language                                 : English
  48. Default                                  : Yes
  49. Forced                                   : No

  50. Text
  51. ID                                       : 3
  52. Format                                   : PGS
  53. Muxing mode                              : zlib
  54. Codec ID                                 : S_HDMV/PGS
  55. Codec ID/Info                            : Picture based subtitle format used on BDs/HD-DVDs
  56. Duration                                 : 1 h 31 min
  57. Bit rate                                 : 7 369 b/s
  58. Count of elements                        : 1614
  59. Stream size                              : 4.81 MiB (0%)
  60. Title                                    : sub
  61. Language                                 : German
  62. Default                                  : No
  63. Forced                                   : No

  64. Menu
  65. 00:00:00.000                             : en:00:00:00.000
  66. 00:07:20.940                             : en:00:07:20.940
  67. 00:13:15.837                             : en:00:13:15.837
  68. 00:23:10.806                             : en:00:23:10.806
  69. 00:28:52.522                             : en:00:28:52.522
  70. 00:38:37.106                             : en:00:38:37.106
  71. 00:47:10.870                             : en:00:47:10.870
  72. 00:57:43.210                             : en:00:57:43.210
  73. 01:04:24.402                             : en:01:04:24.402
  74. 01:12:17.959                             : en:01:12:17.959
  75. 01:17:41.740                             : en:01:17:41.740
  76. 01:32:52.317                             : en:01:32:52.317
复制代码




                                       
                                       

                                       
                                       
                                       




回复

使用道具 举报

懒得打字嘛,点击右侧快捷回复 【右侧内容,后台自定义】
您需要登录后才可以回帖 登录 | 立即加入

本版积分规则

Archiver|小黑屋| 蓝光电影网 |网站地图

Copyright © 2021 Comsenz Inc. Powered by 蓝光电影网

蓝光电影网

本站内容由用户自主分享和转载自互联网,转载目的在于传递更多信息,并不代表本网赞同其观点和对其真实性负责。

如有侵权、违反国家法律政策行为,请联系我们,我们会第一时间及时清除和处理!

举报反馈邮箱:[email protected]

快速回复 返回顶部 返回列表