找回密码

蓝光电影网

查看: 43|回复: 0

[惊悚] 继父2 Stepfather.II.1989.720p.BluRay.x264-GUACAMOLE 2.36GB

[复制链接]
蓝光币
382
发表于 2021-8-16 15:12:19 | 显示全部楼层 |阅读模式


◎译  名 继父2/The Stepfather II
◎片  名 Stepfather II
◎年  代 1989
◎产  地 英国,美国
◎类  别 惊悚 / 可骇
◎语  言 英语
◎上映日期 1989-11-03
◎豆瓣评分 /10 from 0 users
◎豆瓣链接 https://movie.douban.com/subject/1539843/
◎片  长 93 分钟
◎导  演 杰夫·伯尔 Jeff Burr
◎编  剧 唐纳德·维斯雷克 Donald E. Westlake / John Auerbach John Auerbach / 布赖恩·加菲尔德 Brian Garfield
◎主  演 特瑞·欧奎恩 Terry O'Quinn
       梅格·福斯特 Meg Foster
       Renata Scott Renata Scott
       约翰·奥莱利 John O'Leary
       米切尔·劳伦斯 Mitchell Laurance
       埃里克.布朗 Eric Brown
       Miriam Byrd-Nethery Miriam Byrd-Nethery
       乔纳森·布兰戴斯 Jonathan Brandis
       Bob Gray Bob Gray
       卡罗琳·威廉姆斯 Caroline Williams
◎标  签 可骇 | 美国 | 惊悚 | 美國 | 驚悚 | 英国 | 美国电影 | Jeff_Burr
◎简  介


  he Stepfather escapes an insane asylum and winds up in another town, this time impersonating a marriage counselor. Now he seems to have found the perfect future wife, with a stepson who loves him. However, other people try to get in his way to marry her. They are interfering! One by one the Stepfather eliminates anyone who stands in his way to a perfect family.
  1. Video
  2. ID                                       : 1
  3. Format                                   : AVC
  4. Format/Info                              : Advanced Video Codec
  5. Format profile                           : [email protected]
  6. Format settings                          : CABAC / 8 Ref Frames
  7. Format settings, CABAC                   : Yes
  8. Format settings, Reference frames        : 8 frames
  9. Codec ID                                 : V_MPEG4/ISO/AVC
  10. Duration                                 : 1 h 32 min
  11. Bit rate                                 : 3 386 kb/s
  12. Width                                    : 958 pixels
  13. Height                                   : 720 pixels
  14. Display aspect ratio                     : 4:3
  15. Frame rate mode                          : Constant
  16. Frame rate                               : 23.976 (24000/1001/189150) FPS
  17. Color space                              : YUV
  18. Chroma subsampling                       : 4:2:0
  19. Bit depth                                : 8 bits
  20. Scan type                                : Progressive
  21. Bits/(Pixel*Frame)                       : 0.205
  22. Stream size                              : 2.19 GiB (93%)
  23. Writing library                          : x264 core 164 r3065 ae03d92
  24. Encoding settings                        : cabac=1 / ref=8 / deblock=1:-3:-3 / analyse=0x3:0x133 / me=umh / subme=9 / psy=1 / psy_rd=1.00:0.00 / mixed_ref=1 / me_range=16 / chroma_me=1 / trellis=2 / 8x8dct=1 / cqm=0 / deadzone=21,11 / fast_pskip=0 / chroma_qp_offset=-2 / threads=22 / lookahead_threads=1 / sliced_threads=0 / nr=0 / decimate=1 / interlaced=0 / bluray_compat=0 / constrained_intra=0 / bframes=3 / b_pyramid=2 / b_adapt=2 / b_bias=0 / direct=3 / weightb=1 / open_gop=0 / weightp=2 / keyint=250 / keyint_min=23 / scenecut=40 / intra_refresh=0 / rc_lookahead=60 / rc=crf / mbtree=1 / crf=17.0 / qcomp=0.60 / qpmin=0 / qpmax=69 / qpstep=4 / ip_ratio=1.40 / aq=3:0.60
  25. Default                                  : Yes
  26. Forced                                   : No
  27. Color range                              : Limited
  28. Matrix coefficients                      : BT.709

  29. Audio
  30. ID                                       : 2
  31. Format                                   : AC-3
  32. Format/Info                              : Audio Coding 3
  33. Commercial name                          : Dolby Digital
  34. Codec ID                                 : A_AC3
  35. Duration                                 : 1 h 32 min
  36. Bit rate mode                            : Constant
  37. Bit rate                                 : 256 kb/s
  38. Channel(s)                               : 2 channels
  39. Channel layout                           : L R
  40. Sampling rate                            : 48.0 kHz
  41. Frame rate                               : 31.250 FPS (1536 SPF)
  42. Compression mode                         : Lossy
  43. Stream size                              : 170 MiB (7%)
  44. Language                                 : English
  45. Service kind                             : Complete Main
  46. Default                                  : Yes
  47. Forced                                   : No

  48. Text #1
  49. ID                                       : 3
  50. Format                                   : PGS
  51. Muxing mode                              : zlib
  52. Codec ID                                 : S_HDMV/PGS
  53. Codec ID/Info                            : Picture based subtitle format used on BDs/HD-DVDs
  54. Duration                                 : 1 h 29 min
  55. Bit rate                                 : 28.4 kb/s
  56. Count of elements                        : 1763
  57. Stream size                              : 18.1 MiB (1%)
  58. Title                                    : Vobsubs
  59. Language                                 : German
  60. Default                                  : No
  61. Forced                                   : No

  62. Text #2
  63. ID                                       : 4
  64. Format                                   : PGS
  65. Muxing mode                              : zlib
  66. Codec ID                                 : S_HDMV/PGS
  67. Codec ID/Info                            : Picture based subtitle format used on BDs/HD-DVDs
  68. Duration                                 : 1 h 29 min
  69. Bit rate                                 : 735 b/s
  70. Count of elements                        : 55
  71. Stream size                              : 481 KiB (0%)
  72. Title                                    : Forced
  73. Language                                 : German
  74. Default                                  : No
  75. Forced                                   : No

  76. Menu
  77. 00:00:00.000                             : en:00:00:00.000
  78. 00:15:48.239                             : en:00:15:48.239
  79. 00:30:11.393                             : en:00:30:11.393
  80. 00:45:32.897                             : en:00:45:32.897
  81. 00:59:14.634                             : en:00:59:14.634
  82. 01:10:59.839                             : en:01:10:59.839
  83. 01:21:12.701                             : en:01:21:12.701
  84. 01:29:15.934                             : en:01:29:15.934
复制代码





                                       
                                       

                                       
                                       
                                       




回复

使用道具 举报

懒得打字嘛,点击右侧快捷回复 【右侧内容,后台自定义】
您需要登录后才可以回帖 登录 | 立即加入

本版积分规则

Archiver|小黑屋| 蓝光电影网 |网站地图

Copyright © 2021 Comsenz Inc. Powered by 蓝光电影网

蓝光电影网

本站内容由用户自主分享和转载自互联网,转载目的在于传递更多信息,并不代表本网赞同其观点和对其真实性负责。

如有侵权、违反国家法律政策行为,请联系我们,我们会第一时间及时清除和处理!

举报反馈邮箱:[email protected]

快速回复 返回顶部 返回列表