找回密码

蓝光电影网

查看: 30|回复: 0

[科幻] 黑湖妖复仇记/造物复仇 Revenge.of.the.Creature.1955.1080p.BluRay.x264-PSYCHD 8.75GB

[复制链接]
蓝光币
386
发表于 2020-11-10 11:19:03 | 显示全部楼层 |阅读模式


◎译  名 黑湖妖复仇记/造物复仇
◎片  名 Revenge of the Creature
◎年  代 1955
◎产  地 美国
◎类  别 科幻 / 可骇
◎语  言 英语
◎上映日期 1955-05-11
◎IMDb评分  5.7/10 from 5437 users
◎IMDb链接  https://www.imdb.com/title/tt0048554/
◎豆瓣评分 /10 from 0 users
◎豆瓣链接 https://movie.douban.com/subject/2139098/
◎片  长 82 分钟
◎导  演 杰克·阿诺德 Jack Arnold
◎编  剧 马丁·伯克利 Martin Berkeley / 威廉·阿伦德 William Alland
◎主  演 约翰·艾加尔 John Agar
       洛丽·纳尔逊 Lori Nelson
       约翰·布罗姆菲尔德 John Bromfield
       内斯特帕瓦 Nestor Paiva
       Sydney Mason
       格兰丁·罗德 Grandon Rhodes
       伯特史蒂文斯 Bert Stevens
       戴夫·威洛克 Dave Willock
       罗伯特威廉姆斯 Robert Williams
       Ned Le Fevre
       罗伯特·F.霍伊 Robert F. Hoy
       唐·C·哈维 Don C. Harvey
       Bob Wehling
       克林特·伊斯特伍德 Clint Eastwood
       Loretta Agar
       Charles Cane
       Don House
       布雷特·哈尔西 Brett Halsey
       Jack Gargan
       瑞科·布朗宁 Ricou Browning
◎标  签 美国 | 科幻 | 可骇 | 惊悚 | 1955 | 1950s | 美国电影 | 怪物
◎简  介


  暂无相关剧情先容
  1. Video
  2. ID                                       : 1
  3. Format                                   : AVC
  4. Format/Info                              : Advanced Video Codec
  5. Format profile                           : [email protected]
  6. Format settings                          : CABAC / 5 Ref Frames
  7. Format settings, CABAC                   : Yes
  8. Format settings, Reference frames        : 5 frames
  9. Codec ID                                 : V_MPEG4/ISO/AVC
  10. Duration                                 : 1 h 21 min
  11. Bit rate                                 : 13.8 Mb/s
  12. Width                                    : 1 472 pixels
  13. Height                                   : 1 080 pixels
  14. Display aspect ratio                     : 4:3
  15. Frame rate mode                          : Constant
  16. Frame rate                               : 23.976 (24000/1001/189150) FPS
  17. Color space                              : YUV
  18. Chroma subsampling                       : 4:2:0
  19. Bit depth                                : 8 bits
  20. Scan type                                : Progressive
  21. Bits/(Pixel*Frame)                       : 0.362
  22. Stream size                              : 7.71 GiB (88%)
  23. Writing library                          : x264 core 146 r2538 121396c
  24. Encoding settings                        : cabac=1 / ref=5 / deblock=1:-3:-3 / analyse=0x3:0x113 / me=umh / subme=8 / psy=1 / psy_rd=1.15:0.00 / mixed_ref=1 / me_range=16 / chroma_me=1 / trellis=1 / 8x8dct=1 / cqm=0 / deadzone=21,11 / fast_pskip=0 / chroma_qp_offset=-2 / threads=18 / lookahead_threads=3 / sliced_threads=0 / nr=0 / decimate=1 / interlaced=0 / bluray_compat=0 / constrained_intra=0 / bframes=3 / b_pyramid=2 / b_adapt=2 / b_bias=0 / direct=3 / weightb=1 / open_gop=0 / weightp=2 / keyint=240 / keyint_min=24 / scenecut=40 / intra_refresh=0 / rc_lookahead=50 / rc=2pass / mbtree=1 / bitrate=13815 / ratetol=1.0 / qcomp=0.60 / qpmin=0 / qpmax=69 / qpstep=4 / cplxblur=20.0 / qblur=0.5 / ip_ratio=1.40 / aq=1:1.00
  25. Language                                 : English
  26. Default                                  : Yes
  27. Forced                                   : No

  28. Audio
  29. ID                                       : 2
  30. Format                                   : DTS
  31. Format/Info                              : Digital Theater Systems
  32. Codec ID                                 : A_DTS
  33. Duration                                 : 1 h 21 min
  34. Bit rate mode                            : Constant
  35. Bit rate                                 : 1 509 kb/s
  36. Channel(s)                               : 2 channels
  37. Channel layout                           : L R
  38. Sampling rate                            : 48.0 kHz
  39. Frame rate                               : 93.750 FPS (512 SPF)
  40. Bit depth                                : 24 bits
  41. Compression mode                         : Lossy
  42. Stream size                              : 882 MiB (10%)
  43. Language                                 : English
  44. Default                                  : Yes
  45. Forced                                   : No

  46. Text
  47. ID                                       : 3
  48. Format                                   : UTF-8
  49. Codec ID                                 : S_TEXT/UTF8
  50. Codec ID/Info                            : UTF-8 Plain Text
  51. Language                                 : English
  52. Default                                  : No
  53. Forced                                   : No

  54. Menu
  55. 00:00:00.000                             : en:00:00:00.000
  56. 00:01:44.980                             : en:00:01:44.980
  57. 00:07:36.831                             : en:00:07:36.831
  58. 00:12:07.185                             : en:00:12:07.185
  59. 00:16:51.761                             : en:00:16:51.761
  60. 00:21:47.598                             : en:00:21:47.598
  61. 00:26:57.282                             : en:00:26:57.282
  62. 00:34:34.239                             : en:00:34:34.239
  63. 00:40:38.186                             : en:00:40:38.186
  64. 00:47:08.325                             : en:00:47:08.325
  65. 00:55:51.473                             : en:00:55:51.473
  66. 01:00:17.155                             : en:01:00:17.155
  67. 01:05:58.663                             : en:01:05:58.663
  68. 01:11:04.927                             : en:01:11:04.927
  69. 01:14:21.582                             : en:01:14:21.582
  70. 01:18:55.981                             : en:01:18:55.981
复制代码




                                       
                                       

                                       
                                       
                                       




回复

使用道具 举报

懒得打字嘛,点击右侧快捷回复 【右侧内容,后台自定义】
您需要登录后才可以回帖 登录 | 立即加入

本版积分规则

Archiver|小黑屋| 蓝光电影网 |网站地图

Copyright © 2021 Comsenz Inc. Powered by 蓝光电影网

蓝光电影网

本站内容由用户自主分享和转载自互联网,转载目的在于传递更多信息,并不代表本网赞同其观点和对其真实性负责。

如有侵权、违反国家法律政策行为,请联系我们,我们会第一时间及时清除和处理!

举报反馈邮箱:[email protected]

快速回复 返回顶部 返回列表