找回密码

蓝光电影网

查看: 13|回复: 0

[动作] 扎克·施奈德版正义联盟 Justice.League.Snyders.Cut.2021.1080p.BluRay.x264.DTS-HD.MA.7.1-FGT 26.21GB

[复制链接]
蓝光币
382
发表于 2021-5-18 18:14:41 | 显示全部楼层 |阅读模式
[img][/img]

◎译  名 扎克·施奈德版正义同盟/Justice League Snyder Cut/查克·史奈德之正义同盟(台)/正义同盟 扎克·施奈德导演剪辑版/正义同盟:扎克·施耐德版/正义同盟导演剪辑版
◎片  名 Zack Snyder's Justice League
◎年  代 2021
◎产  地 美国
◎类  别 行动 / 科幻 / 奇异 / 冒险
◎语  言 英语
◎上映日期 2021-03-18(美国) / 2021-05-03(中国大陆收集)
◎豆瓣评分 8.3/10 from 187687 users
◎豆瓣链接 https://movie.douban.com/subject/35076714/
◎片  长 242分钟
◎导  演 扎克·施奈德 Zack Snyder
◎编  剧 扎克·施奈德 Zack Snyder / 克里斯·特里奥 Chris Terrio / 威尔·比尔 Will Beall / 杰里·西格尔 Jerry Siegel / 乔·舒斯特 Joe Shuster
◎主  演 本·阿弗莱克 Ben Affleck
       亨利·卡维尔 Henry Cavill
       盖尔·加朵 Gal Gadot
       杰森·莫玛 Jason Momoa
       埃兹拉·米勒 Ezra Miller
       雷·费舍尔 Ray Fisher
       艾米·亚当斯 Amy Adams
       威廉·达福 Willem Dafoe
       杰西·艾森伯格 Jesse Eisenberg
       杰瑞米·艾恩斯 Jeremy Irons
       戴安·琳恩 Diane Lane
       康妮·尼尔森 Connie Nielsen
       J·K·西蒙斯 J.K. Simmons
       塞伦·希德 Ciarán Hinds
       郑恺 Kai Zheng
       艾梅柏·希尔德 Amber Heard
       乔·莫顿 Joe Morton
       丽莎·洛文·孔斯利 Lisa Loven Kongsli
       大卫·休里斯 David Thewlis
       安·奥戈博莫 Ann Ogbomo
       奥古斯塔·艾娃·艾伦德斯杜提尔 ágústa Eva Erlendsdóttir
       克里斯特比约格·凯尔德 Kristbj?rg Kjeld
       英格瓦·埃盖特·西古德松 Ingvar Eggert Siguresson
       马克·麦克卢尔 Marc McClure
       迈克尔·麦克埃尔哈顿 Michael McElhatton
       约翰·达格尔什 John Dagleish
       拉腊·德坎罗 Lara Decaro
       罗比·基 Robbie Gee
       吉姆·斯图格恩 Jim Sturgeon
       杜晨·科洛斯 Doutzen Kroes
       埃莉诺·松浦 Eleanor Matsuura
       萨曼塔·若 Samantha Jo
       布鲁克恩斯 Brooke Ence
       杰罗姆·普拉顿 Jér?me Pradon
       理查德·克里弗特 Richard Clifford
       文森特·里奥特 Vincent Riotta
       马克·阿诺德 Mark Arnold
       彼得·吉尼斯 Peter Guinness
       赛吉·康斯坦斯 Sergi Constance
       奥萝尔·劳泽瑞尔 Aurore Lauzeral
       朱利安·刘易斯·琼斯 Julian Lewis Jones
       雷·波特 Ray Porter
       弗朗西斯·麦基 Francis Magee
       科雷西·克莱门斯 Kiersey Clemons
       露西·布莱尔斯 Lucy Briers
       威尔·柯班 Wil Coban
       凯伦·布莱森 Karen Bryson
       克里斯蒂·梅尔 Christy Meyer
       吉安皮罗·科格诺利 Gianpiero Cognoli
       寇布勒·霍尔德布鲁克-史姑娘 Kobna Holdbrook-Smith
       凯文·马图林 Kevin Mathurin
       泰勒·詹姆斯 Taylor James
       布鲁斯·钟 Bruce Chong
       奥赖恩·李 Orion Lee
       奥利弗·加茨 Oliver Gatz
       凯莉·波尔克 Kelly Burke
       奥利弗·鲍威尔 Oliver Powell
       哈里·伦尼克斯 Harry Lennix
       欧米·罗斯 Omri Rose
       萨姆·本杰明 Sam Benjamin
       卡拉·古奇诺 Carla Gugino
       罗素·克劳 Russell Crowe
       扎克·施奈德 Zack Snyder
       杰瑞德·莱托 Jared Leto
       罗宾·怀特 Robin Wright
       比利·克鲁德普 Billy Crudup
       乔·曼根尼罗 Joe Manganiello
       斯沃里·拉格纳内 Swaylee Loughnane
       安德鲁·G·奥格尔比 Andrew G. Ogleby
       山姆·威克斯 Sam Weeks
       Salóme Gunnarsdóttir
◎标  签 DC | 正义同盟 | 扎克施奈德 | 导演剪辑版 | 科幻 | 2021 | 漫画改编 | 美国
◎简  介


  布鲁斯·韦恩(本·阿弗莱克饰)为了确保不让超人(亨利·卡维尔饰)白白牺牲,他决议与戴安娜·普林斯(盖尔·加朵饰)联手并计划招募一支超才能者团队来庇护天下免遭行将到来的灾难性威胁。但这项使命比布鲁斯设想中要困难,由于每位成员都必须面临并跨越自己曩昔的心魔,团结起来,终极构成一个史无前例的豪杰同盟。 蝙蝠侠、奇异女侠、海王(杰森·莫玛饰)、钢骨(雷·费舍饰)、闪电侠(埃兹拉·米勒饰)现在必须结合起来,否则就没法阻止荒原狼(塞伦·希德饰)、狄萨德(彼得·吉尼斯饰)以及达克赛德(雷·波特饰)扑灭地球的可怕计划。
  1. Video
  2. ID                                       : 1
  3. Format                                   : AVC
  4. Format/Info                              : Advanced Video Codec
  5. Format profile                           : [email protected]
  6. Format settings                          : CABAC / 4 Ref Frames
  7. Format settings, CABAC                   : Yes
  8. Format settings, Reference frames        : 4 frames
  9. Codec ID                                 : V_MPEG4/ISO/AVC
  10. Duration                                 : 4 h 2 min
  11. Bit rate                                 : 11.5 Mb/s
  12. Width                                    : 1 440 pixels
  13. Height                                   : 1 080 pixels
  14. Display aspect ratio                     : 4:3
  15. Frame rate mode                          : Constant
  16. Frame rate                               : 23.976 (24000/1001/189150) FPS
  17. Color space                              : YUV
  18. Chroma subsampling                       : 4:2:0
  19. Bit depth                                : 8 bits
  20. Scan type                                : Progressive
  21. Bits/(Pixel*Frame)                       : 0.308
  22. Stream size                              : 19.5 GiB (74%)
  23. Writing library                          : x264 core 148 r2748 97eaef2
  24. Encoding settings                        : cabac=1 / ref=4 / deblock=1:-2:-2 / analyse=0x3:0x113 / me=umh / subme=9 / psy=1 / psy_rd=1.00:0.15 / mixed_ref=1 / me_range=16 / chroma_me=1 / trellis=2 / 8x8dct=1 / cqm=0 / deadzone=21,11 / fast_pskip=1 / chroma_qp_offset=-3 / threads=72 / lookahead_threads=3 / sliced_threads=0 / nr=0 / decimate=1 / interlaced=0 / bluray_compat=0 / constrained_intra=0 / bframes=3 / b_pyramid=2 / b_adapt=1 / b_bias=0 / direct=3 / weightb=1 / open_gop=0 / weightp=2 / keyint=250 / keyint_min=25 / scenecut=40 / intra_refresh=0 / rc_lookahead=50 / rc=2pass / mbtree=1 / bitrate=11500 / ratetol=1.0 / qcomp=0.60 / qpmin=0 / qpmax=69 / qpstep=4 / cplxblur=20.0 / qblur=0.5 / vbv_maxrate=31250 / vbv_bufsize=31250 / nal_hrd=none / filler=0 / ip_ratio=1.40 / aq=1:1.00
  25. Language                                 : English
  26. Default                                  : Yes
  27. Forced                                   : No
  28. Audio
  29. ID                                       : 2
  30. Format                                   : DTS XLL
  31. Format/Info                              : Digital Theater Systems
  32. Commercial name                          : DTS-HD Master Audio
  33. Codec ID                                 : A_DTS
  34. Duration                                 : 4 h 2 min
  35. Bit rate mode                            : Variable
  36. Bit rate                                 : 3 887 kb/s
  37. Channel(s)                               : 8 channels
  38. Channel layout                           : C L R LFE Lb Rb Lss Rss
  39. Sampling rate                            : 48.0 kHz
  40. Frame rate                               : 93.750 FPS (512 SPF)
  41. Bit depth                                : 24 bits
  42. Compression mode                         : Lossless
  43. Stream size                              : 6.58 GiB (25%)
  44. Title                                    : DTS-HD MA 7.1
  45. Language                                 : English
  46. Default                                  : No
  47. Forced                                   : No
  48. Text #1
  49. ID                                       : 3
  50. Format                                   : UTF-8
  51. Codec ID                                 : S_TEXT/UTF8
  52. Codec ID/Info                            : UTF-8 Plain Text
  53. Duration                                 : 3 h 55 min
  54. Bit rate                                 : 31 b/s
  55. Count of elements                        : 2047
  56. Stream size                              : 54.3 KiB (0%)
  57. Title                                    : English-SRT
  58. Language                                 : English
  59. Default                                  : Yes
  60. Forced                                   : No
  61. Text #2
  62. ID                                       : 4
  63. Format                                   : PGS
  64. Muxing mode                              : zlib
  65. Codec ID                                 : S_HDMV/PGS
  66. Codec ID/Info                            : Picture based subtitle format used on BDs/HD-DVDs
  67. Duration                                 : 4 h 0 min
  68. Bit rate                                 : 25.8 kb/s
  69. Count of elements                        : 5558
  70. Stream size                              : 44.3 MiB (0%)
  71. Language                                 : English
  72. Default                                  : No
  73. Forced                                   : No
  74. Text #3
  75. ID                                       : 5
  76. Format                                   : PGS
  77. Muxing mode                              : zlib
  78. Codec ID                                 : S_HDMV/PGS
  79. Codec ID/Info                            : Picture based subtitle format used on BDs/HD-DVDs
  80. Duration                                 : 3 h 55 min
  81. Bit rate                                 : 16.3 kb/s
  82. Count of elements                        : 3540
  83. Stream size                              : 27.5 MiB (0%)
  84. Language                                 : French
  85. Default                                  : No
  86. Forced                                   : No
  87. Text #4
  88. ID                                       : 6
  89. Format                                   : PGS
  90. Muxing mode                              : zlib
  91. Codec ID                                 : S_HDMV/PGS
  92. Codec ID/Info                            : Picture based subtitle format used on BDs/HD-DVDs
  93. Duration                                 : 3 h 52 min
  94. Bit rate                                 : 24.9 kb/s
  95. Count of elements                        : 5282
  96. Stream size                              : 41.5 MiB (0%)
  97. Language                                 : Italian
  98. Default                                  : No
  99. Forced                                   : No
  100. Text #5
  101. ID                                       : 7
  102. Format                                   : PGS
  103. Muxing mode                              : zlib
  104. Codec ID                                 : S_HDMV/PGS
  105. Codec ID/Info                            : Picture based subtitle format used on BDs/HD-DVDs
  106. Duration                                 : 3 h 59 min
  107. Bit rate                                 : 18.8 kb/s
  108. Count of elements                        : 3784
  109. Stream size                              : 32.2 MiB (0%)
  110. Language                                 : Spanish
  111. Default                                  : No
  112. Forced                                   : No
  113. Text #6
  114. ID                                       : 8
  115. Format                                   : PGS
  116. Muxing mode                              : zlib
  117. Codec ID                                 : S_HDMV/PGS
  118. Codec ID/Info                            : Picture based subtitle format used on BDs/HD-DVDs
  119. Duration                                 : 3 h 51 min
  120. Bit rate                                 : 19.2 kb/s
  121. Count of elements                        : 3804
  122. Stream size                              : 31.7 MiB (0%)
  123. Language                                 : Chinese
  124. Default                                  : No
  125. Forced                                   : No
  126. Text #7
  127. ID                                       : 9
  128. Format                                   : PGS
  129. Muxing mode                              : zlib
  130. Codec ID                                 : S_HDMV/PGS
  131. Codec ID/Info                            : Picture based subtitle format used on BDs/HD-DVDs
  132. Duration                                 : 3 h 59 min
  133. Bit rate                                 : 20.1 kb/s
  134. Count of elements                        : 3822
  135. Stream size                              : 34.4 MiB (0%)
  136. Language                                 : Chinese
  137. Default                                  : No
  138. Forced                                   : No
  139. Text #8
  140. ID                                       : 10
  141. Format                                   : PGS
  142. Muxing mode                              : zlib
  143. Codec ID                                 : S_HDMV/PGS
  144. Codec ID/Info                            : Picture based subtitle format used on BDs/HD-DVDs
  145. Duration                                 : 3 h 51 min
  146. Bit rate                                 : 12.9 kb/s
  147. Count of elements                        : 3790
  148. Stream size                              : 21.2 MiB (0%)
  149. Language                                 : Korean
  150. Default                                  : No
  151. Forced                                   : No
  152. Text #9
  153. ID                                       : 11
  154. Format                                   : PGS
  155. Muxing mode                              : zlib
  156. Codec ID                                 : S_HDMV/PGS
  157. Codec ID/Info                            : Picture based subtitle format used on BDs/HD-DVDs
  158. Duration                                 : 3 h 59 min
  159. Bit rate                                 : 17.8 kb/s
  160. Count of elements                        : 2980
  161. Stream size                              : 30.4 MiB (0%)
  162. Language                                 : Spanish
  163. Default                                  : No
  164. Forced                                   : No
  165. Text #10
  166. ID                                       : 12
  167. Format                                   : PGS
  168. Muxing mode                              : zlib
  169. Codec ID                                 : S_HDMV/PGS
  170. Codec ID/Info                            : Picture based subtitle format used on BDs/HD-DVDs
  171. Duration                                 : 3 h 59 min
  172. Bit rate                                 : 19.6 kb/s
  173. Count of elements                        : 3784
  174. Stream size                              : 33.5 MiB (0%)
  175. Language                                 : Portuguese
  176. Default                                  : No
  177. Forced                                   : No
  178. Text #11
  179. ID                                       : 13
  180. Format                                   : PGS
  181. Muxing mode                              : zlib
  182. Codec ID                                 : S_HDMV/PGS
  183. Codec ID/Info                            : Picture based subtitle format used on BDs/HD-DVDs
  184. Duration                                 : 3 h 59 min
  185. Bit rate                                 : 17.7 kb/s
  186. Count of elements                        : 3762
  187. Stream size                              : 30.3 MiB (0%)
  188. Language                                 : Czech
  189. Default                                  : No
  190. Forced                                   : No
  191. Text #12
  192. ID                                       : 14
  193. Format                                   : PGS
  194. Muxing mode                              : zlib
  195. Codec ID                                 : S_HDMV/PGS
  196. Codec ID/Info                            : Picture based subtitle format used on BDs/HD-DVDs
  197. Duration                                 : 3 h 55 min
  198. Bit rate                                 : 16.8 kb/s
  199. Count of elements                        : 2552
  200. Stream size                              : 28.3 MiB (0%)
  201. Language                                 : Danish
  202. Default                                  : No
  203. Forced                                   : No
  204. Text #13
  205. ID                                       : 15
  206. Format                                   : PGS
  207. Muxing mode                              : zlib
  208. Codec ID                                 : S_HDMV/PGS
  209. Codec ID/Info                            : Picture based subtitle format used on BDs/HD-DVDs
  210. Duration                                 : 3 h 55 min
  211. Bit rate                                 : 18.3 kb/s
  212. Count of elements                        : 3760
  213. Stream size                              : 30.8 MiB (0%)
  214. Language                                 : Finnish
  215. Default                                  : No
  216. Forced                                   : No
  217. Text #14
  218. ID                                       : 16
  219. Format                                   : PGS
  220. Muxing mode                              : zlib
  221. Codec ID                                 : S_HDMV/PGS
  222. Codec ID/Info                            : Picture based subtitle format used on BDs/HD-DVDs
  223. Duration                                 : 3 h 55 min
  224. Bit rate                                 : 18.1 kb/s
  225. Count of elements                        : 3044
  226. Stream size                              : 30.4 MiB (0%)
  227. Language                                 : Norwegian
  228. Default                                  : No
  229. Forced                                   : No
  230. Text #15
  231. ID                                       : 17
  232. Format                                   : PGS
  233. Muxing mode                              : zlib
  234. Codec ID                                 : S_HDMV/PGS
  235. Codec ID/Info                            : Picture based subtitle format used on BDs/HD-DVDs
  236. Duration                                 : 3 h 59 min
  237. Bit rate                                 : 18.8 kb/s
  238. Count of elements                        : 3744
  239. Stream size                              : 32.2 MiB (0%)
  240. Language                                 : Polish
  241. Default                                  : No
  242. Forced                                   : No
  243. Text #16
  244. ID                                       : 18
  245. Format                                   : PGS
  246. Muxing mode                              : zlib
  247. Codec ID                                 : S_HDMV/PGS
  248. Codec ID/Info                            : Picture based subtitle format used on BDs/HD-DVDs
  249. Duration                                 : 3 h 55 min
  250. Bit rate                                 : 16.5 kb/s
  251. Count of elements                        : 3622
  252. Stream size                              : 27.8 MiB (0%)
  253. Language                                 : Swedish
  254. Default                                  : No
  255. Forced                                   : No
  256. Text #17
  257. ID                                       : 19
  258. Format                                   : PGS
  259. Muxing mode                              : zlib
  260. Codec ID                                 : S_HDMV/PGS
  261. Codec ID/Info                            : Picture based subtitle format used on BDs/HD-DVDs
  262. Duration                                 : 3 h 47 min
  263. Bit rate                                 : 13.2 kb/s
  264. Count of elements                        : 3433
  265. Stream size                              : 21.4 MiB (0%)
  266. Language                                 : Japanese
  267. Default                                  : No
  268. Forced                                   : No
  269. Menu
  270. 00:00:00.000                             : Chapter 01
  271. 00:08:54.909                             : Chapter 02
  272. 00:19:56.737                             : Chapter 03
  273. 00:36:54.503                             : Chapter 04
  274. 00:41:32.031                             : Chapter 05
  275. 00:50:18.640                             : Chapter 06
  276. 00:58:42.435                             : Chapter 07
  277. 01:08:35.569                             : Chapter 08
  278. 01:20:27.823                             : Chapter 09
  279. 01:30:05.024                             : Chapter 10
  280. 01:40:28.313                             : Chapter 11
  281. 01:51:24.010                             : Chapter 12
  282. 01:59:06.931                             : Chapter 13
  283. 02:07:56.293                             : Chapter 14
  284. 02:21:58.528                             : Chapter 01
  285. 02:29:49.915                             : Chapter 02
  286. 02:37:27.289                             : Chapter 03
  287. 02:48:36.374                             : Chapter 04
  288. 02:53:19.532                             : Chapter 05
  289. 03:09:54.109                             : Chapter 06
  290. 03:21:28.844                             : Chapter 07
  291. 03:34:12.858                             : Chapter 08
  292. 03:40:10.048                             : Chapter 09
  293. 03:50:47.476                             : Chapter 10
复制代码




                                       
                                       

                                       
                                       
                                       




回复

使用道具 举报

懒得打字嘛,点击右侧快捷回复 【右侧内容,后台自定义】
您需要登录后才可以回帖 登录 | 立即加入

本版积分规则

Archiver|小黑屋| 蓝光电影网 |网站地图

Copyright © 2021 Comsenz Inc. Powered by 蓝光电影网

蓝光电影网

本站内容由用户自主分享和转载自互联网,转载目的在于传递更多信息,并不代表本网赞同其观点和对其真实性负责。

如有侵权、违反国家法律政策行为,请联系我们,我们会第一时间及时清除和处理!

举报反馈邮箱:[email protected]

快速回复 返回顶部 返回列表