找回密码

蓝光电影网

查看: 44|回复: 0

[动作] 扎克·施奈德版正义联盟 Justice.League.Snyders.Cut.2021.1080p.BluRay.x264.TrueHD.Atmos.7.1-FGT 25.84GB

[复制链接]
蓝光币
519
发表于 2021-5-18 18:12:16 | 显示全部楼层 |阅读模式
[img][/img]

◎译  名 扎克·施奈德版正义同盟/Justice League Snyder Cut/查克·史奈德之正义同盟(台)/正义同盟 扎克·施奈德导演剪辑版/正义同盟:扎克·施耐德版/正义同盟导演剪辑版
◎片  名 Zack Snyder's Justice League
◎年  代 2021
◎产  地 美国
◎类  别 行动 / 科幻 / 奇异 / 冒险
◎语  言 英语
◎上映日期 2021-03-18(美国) / 2021-05-03(中国大陆收集)
◎豆瓣评分 8.3/10 from 187687 users
◎豆瓣链接 https://movie.douban.com/subject/35076714/
◎片  长 242分钟
◎导  演 扎克·施奈德 Zack Snyder
◎编  剧 扎克·施奈德 Zack Snyder / 克里斯·特里奥 Chris Terrio / 威尔·比尔 Will Beall / 杰里·西格尔 Jerry Siegel / 乔·舒斯特 Joe Shuster
◎主  演 本·阿弗莱克 Ben Affleck
       亨利·卡维尔 Henry Cavill
       盖尔·加朵 Gal Gadot
       杰森·莫玛 Jason Momoa
       埃兹拉·米勒 Ezra Miller
       雷·费舍尔 Ray Fisher
       艾米·亚当斯 Amy Adams
       威廉·达福 Willem Dafoe
       杰西·艾森伯格 Jesse Eisenberg
       杰瑞米·艾恩斯 Jeremy Irons
       戴安·琳恩 Diane Lane
       康妮·尼尔森 Connie Nielsen
       J·K·西蒙斯 J.K. Simmons
       塞伦·希德 Ciarán Hinds
       郑恺 Kai Zheng
       艾梅柏·希尔德 Amber Heard
       乔·莫顿 Joe Morton
       丽莎·洛文·孔斯利 Lisa Loven Kongsli
       大卫·休里斯 David Thewlis
       安·奥戈博莫 Ann Ogbomo
       奥古斯塔·艾娃·艾伦德斯杜提尔 ágústa Eva Erlendsdóttir
       克里斯特比约格·凯尔德 Kristbj?rg Kjeld
       英格瓦·埃盖特·西古德松 Ingvar Eggert Siguresson
       马克·麦克卢尔 Marc McClure
       迈克尔·麦克埃尔哈顿 Michael McElhatton
       约翰·达格尔什 John Dagleish
       拉腊·德坎罗 Lara Decaro
       罗比·基 Robbie Gee
       吉姆·斯图格恩 Jim Sturgeon
       杜晨·科洛斯 Doutzen Kroes
       埃莉诺·松浦 Eleanor Matsuura
       萨曼塔·若 Samantha Jo
       布鲁克恩斯 Brooke Ence
       杰罗姆·普拉顿 Jér?me Pradon
       理查德·克里弗特 Richard Clifford
       文森特·里奥特 Vincent Riotta
       马克·阿诺德 Mark Arnold
       彼得·吉尼斯 Peter Guinness
       赛吉·康斯坦斯 Sergi Constance
       奥萝尔·劳泽瑞尔 Aurore Lauzeral
       朱利安·刘易斯·琼斯 Julian Lewis Jones
       雷·波特 Ray Porter
       弗朗西斯·麦基 Francis Magee
       科雷西·克莱门斯 Kiersey Clemons
       露西·布莱尔斯 Lucy Briers
       威尔·柯班 Wil Coban
       凯伦·布莱森 Karen Bryson
       克里斯蒂·梅尔 Christy Meyer
       吉安皮罗·科格诺利 Gianpiero Cognoli
       寇布勒·霍尔德布鲁克-史姑娘 Kobna Holdbrook-Smith
       凯文·马图林 Kevin Mathurin
       泰勒·詹姆斯 Taylor James
       布鲁斯·钟 Bruce Chong
       奥赖恩·李 Orion Lee
       奥利弗·加茨 Oliver Gatz
       凯莉·波尔克 Kelly Burke
       奥利弗·鲍威尔 Oliver Powell
       哈里·伦尼克斯 Harry Lennix
       欧米·罗斯 Omri Rose
       萨姆·本杰明 Sam Benjamin
       卡拉·古奇诺 Carla Gugino
       罗素·克劳 Russell Crowe
       扎克·施奈德 Zack Snyder
       杰瑞德·莱托 Jared Leto
       罗宾·怀特 Robin Wright
       比利·克鲁德普 Billy Crudup
       乔·曼根尼罗 Joe Manganiello
       斯沃里·拉格纳内 Swaylee Loughnane
       安德鲁·G·奥格尔比 Andrew G. Ogleby
       山姆·威克斯 Sam Weeks
       Salóme Gunnarsdóttir
◎标  签 DC | 正义同盟 | 扎克施奈德 | 导演剪辑版 | 科幻 | 2021 | 漫画改编 | 美国
◎简  介


  布鲁斯·韦恩(本·阿弗莱克饰)为了确保不让超人(亨利·卡维尔饰)白白牺牲,他决议与戴安娜·普林斯(盖尔·加朵饰)联手并计划招募一支超才能者团队来庇护天下免遭行将到来的灾难性威胁。但这项使命比布鲁斯设想中要困难,由于每位成员都必须面临并跨越自己曩昔的心魔,团结起来,终极构成一个史无前例的豪杰同盟。 蝙蝠侠、奇异女侠、海王(杰森·莫玛饰)、钢骨(雷·费舍饰)、闪电侠(埃兹拉·米勒饰)现在必须结合起来,否则就没法阻止荒原狼(塞伦·希德饰)、狄萨德(彼得·吉尼斯饰)以及达克赛德(雷·波特饰)扑灭地球的可怕计划。
  1. Video
  2. ID                                       : 1
  3. Format                                   : AVC
  4. Format/Info                              : Advanced Video Codec
  5. Format profile                           : [email protected]
  6. Format settings                          : CABAC / 4 Ref Frames
  7. Format settings, CABAC                   : Yes
  8. Format settings, Reference frames        : 4 frames
  9. Codec ID                                 : V_MPEG4/ISO/AVC
  10. Duration                                 : 4 h 2 min
  11. Bit rate                                 : 11.5 Mb/s
  12. Width                                    : 1 440 pixels
  13. Height                                   : 1 080 pixels
  14. Display aspect ratio                     : 4:3
  15. Frame rate mode                          : Constant
  16. Frame rate                               : 23.976 (24000/1001/189150) FPS
  17. Color space                              : YUV
  18. Chroma subsampling                       : 4:2:0
  19. Bit depth                                : 8 bits
  20. Scan type                                : Progressive
  21. Bits/(Pixel*Frame)                       : 0.308
  22. Stream size                              : 19.5 GiB (75%)
  23. Writing library                          : x264 core 148 r2748 97eaef2
  24. Encoding settings                        : cabac=1 / ref=4 / deblock=1:-2:-2 / analyse=0x3:0x113 / me=umh / subme=9 / psy=1 / psy_rd=1.00:0.15 / mixed_ref=1 / me_range=16 / chroma_me=1 / trellis=2 / 8x8dct=1 / cqm=0 / deadzone=21,11 / fast_pskip=1 / chroma_qp_offset=-3 / threads=72 / lookahead_threads=3 / sliced_threads=0 / nr=0 / decimate=1 / interlaced=0 / bluray_compat=0 / constrained_intra=0 / bframes=3 / b_pyramid=2 / b_adapt=1 / b_bias=0 / direct=3 / weightb=1 / open_gop=0 / weightp=2 / keyint=250 / keyint_min=25 / scenecut=40 / intra_refresh=0 / rc_lookahead=50 / rc=2pass / mbtree=1 / bitrate=11500 / ratetol=1.0 / qcomp=0.60 / qpmin=0 / qpmax=69 / qpstep=4 / cplxblur=20.0 / qblur=0.5 / vbv_maxrate=31250 / vbv_bufsize=31250 / nal_hrd=none / filler=0 / ip_ratio=1.40 / aq=1:1.00
  25. Language                                 : English
  26. Default                                  : Yes
  27. Forced                                   : No
  28. Audio #1
  29. ID                                       : 2
  30. Format                                   : MLP FBA 16-ch
  31. Format/Info                              : Meridian Lossless Packing FBA with 16-channel presentation
  32. Commercial name                          : Dolby TrueHD with Dolby Atmos
  33. Codec ID                                 : A_TRUEHD
  34. Duration                                 : 4 h 2 min
  35. Bit rate mode                            : Variable
  36. Bit rate                                 : 3 157 kb/s
  37. Maximum bit rate                         : 4 773 kb/s
  38. Channel(s)                               : 8 channels
  39. Channel layout                           : L R C LFE Ls Rs Lb Rb
  40. Sampling rate                            : 48.0 kHz
  41. Frame rate                               : 1 200.000 FPS (40 SPF)
  42. Bit depth                                : 24 bits
  43. Compression mode                         : Lossless
  44. Stream size                              : 5.34 GiB (21%)
  45. Title                                    : TrueHD 7.1 Atmos
  46. Language                                 : English
  47. Default                                  : Yes
  48. Forced                                   : No
  49. Number of dynamic objects                : 11
  50. Bed channel count                        : 1 channel
  51. Bed channel configuration                : LFE
  52. Audio #2
  53. ID                                       : 3
  54. Format                                   : AC-3
  55. Format/Info                              : Audio Coding 3
  56. Commercial name                          : Dolby Digital
  57. Format settings                          : Dolby Surround EX
  58. Codec ID                                 : A_AC3
  59. Duration                                 : 4 h 2 min
  60. Bit rate mode                            : Constant
  61. Bit rate                                 : 448 kb/s
  62. Channel(s)                               : 6 channels
  63. Channel layout                           : L R C LFE Ls Rs
  64. Sampling rate                            : 48.0 kHz
  65. Frame rate                               : 31.250 FPS (1536 SPF)
  66. Compression mode                         : Lossy
  67. Stream size                              : 776 MiB (3%)
  68. Title                                    : DD 5.1
  69. Language                                 : English
  70. Service kind                             : Complete Main
  71. Default                                  : No
  72. Forced                                   : No
  73. Text #1
  74. ID                                       : 4
  75. Format                                   : UTF-8
  76. Codec ID                                 : S_TEXT/UTF8
  77. Codec ID/Info                            : UTF-8 Plain Text
  78. Duration                                 : 3 h 55 min
  79. Bit rate                                 : 31 b/s
  80. Count of elements                        : 2047
  81. Stream size                              : 54.3 KiB (0%)
  82. Title                                    : English-SRT
  83. Language                                 : English
  84. Default                                  : Yes
  85. Forced                                   : No
  86. Text #2
  87. ID                                       : 5
  88. Format                                   : PGS
  89. Muxing mode                              : zlib
  90. Codec ID                                 : S_HDMV/PGS
  91. Codec ID/Info                            : Picture based subtitle format used on BDs/HD-DVDs
  92. Duration                                 : 4 h 0 min
  93. Bit rate                                 : 25.8 kb/s
  94. Count of elements                        : 5558
  95. Stream size                              : 44.3 MiB (0%)
  96. Language                                 : English
  97. Default                                  : No
  98. Forced                                   : No
  99. Text #3
  100. ID                                       : 6
  101. Format                                   : PGS
  102. Muxing mode                              : zlib
  103. Codec ID                                 : S_HDMV/PGS
  104. Codec ID/Info                            : Picture based subtitle format used on BDs/HD-DVDs
  105. Duration                                 : 3 h 55 min
  106. Bit rate                                 : 16.3 kb/s
  107. Count of elements                        : 3540
  108. Stream size                              : 27.5 MiB (0%)
  109. Language                                 : French
  110. Default                                  : No
  111. Forced                                   : No
  112. Text #4
  113. ID                                       : 7
  114. Format                                   : PGS
  115. Muxing mode                              : zlib
  116. Codec ID                                 : S_HDMV/PGS
  117. Codec ID/Info                            : Picture based subtitle format used on BDs/HD-DVDs
  118. Duration                                 : 3 h 52 min
  119. Bit rate                                 : 24.9 kb/s
  120. Count of elements                        : 5282
  121. Stream size                              : 41.5 MiB (0%)
  122. Language                                 : Italian
  123. Default                                  : No
  124. Forced                                   : No
  125. Text #5
  126. ID                                       : 8
  127. Format                                   : PGS
  128. Muxing mode                              : zlib
  129. Codec ID                                 : S_HDMV/PGS
  130. Codec ID/Info                            : Picture based subtitle format used on BDs/HD-DVDs
  131. Duration                                 : 3 h 59 min
  132. Bit rate                                 : 18.8 kb/s
  133. Count of elements                        : 3784
  134. Stream size                              : 32.2 MiB (0%)
  135. Language                                 : Spanish
  136. Default                                  : No
  137. Forced                                   : No
  138. Text #6
  139. ID                                       : 9
  140. Format                                   : PGS
  141. Muxing mode                              : zlib
  142. Codec ID                                 : S_HDMV/PGS
  143. Codec ID/Info                            : Picture based subtitle format used on BDs/HD-DVDs
  144. Duration                                 : 3 h 51 min
  145. Bit rate                                 : 19.2 kb/s
  146. Count of elements                        : 3804
  147. Stream size                              : 31.7 MiB (0%)
  148. Language                                 : Chinese
  149. Default                                  : No
  150. Forced                                   : No
  151. Text #7
  152. ID                                       : 10
  153. Format                                   : PGS
  154. Muxing mode                              : zlib
  155. Codec ID                                 : S_HDMV/PGS
  156. Codec ID/Info                            : Picture based subtitle format used on BDs/HD-DVDs
  157. Duration                                 : 3 h 59 min
  158. Bit rate                                 : 20.1 kb/s
  159. Count of elements                        : 3822
  160. Stream size                              : 34.4 MiB (0%)
  161. Language                                 : Chinese
  162. Default                                  : No
  163. Forced                                   : No
  164. Text #8
  165. ID                                       : 11
  166. Format                                   : PGS
  167. Muxing mode                              : zlib
  168. Codec ID                                 : S_HDMV/PGS
  169. Codec ID/Info                            : Picture based subtitle format used on BDs/HD-DVDs
  170. Duration                                 : 3 h 51 min
  171. Bit rate                                 : 12.9 kb/s
  172. Count of elements                        : 3790
  173. Stream size                              : 21.2 MiB (0%)
  174. Language                                 : Korean
  175. Default                                  : No
  176. Forced                                   : No
  177. Text #9
  178. ID                                       : 12
  179. Format                                   : PGS
  180. Muxing mode                              : zlib
  181. Codec ID                                 : S_HDMV/PGS
  182. Codec ID/Info                            : Picture based subtitle format used on BDs/HD-DVDs
  183. Duration                                 : 3 h 59 min
  184. Bit rate                                 : 17.8 kb/s
  185. Count of elements                        : 2980
  186. Stream size                              : 30.4 MiB (0%)
  187. Language                                 : Spanish
  188. Default                                  : No
  189. Forced                                   : No
  190. Text #10
  191. ID                                       : 13
  192. Format                                   : PGS
  193. Muxing mode                              : zlib
  194. Codec ID                                 : S_HDMV/PGS
  195. Codec ID/Info                            : Picture based subtitle format used on BDs/HD-DVDs
  196. Duration                                 : 3 h 59 min
  197. Bit rate                                 : 19.6 kb/s
  198. Count of elements                        : 3784
  199. Stream size                              : 33.5 MiB (0%)
  200. Language                                 : Portuguese
  201. Default                                  : No
  202. Forced                                   : No
  203. Text #11
  204. ID                                       : 14
  205. Format                                   : PGS
  206. Muxing mode                              : zlib
  207. Codec ID                                 : S_HDMV/PGS
  208. Codec ID/Info                            : Picture based subtitle format used on BDs/HD-DVDs
  209. Duration                                 : 3 h 59 min
  210. Bit rate                                 : 17.7 kb/s
  211. Count of elements                        : 3762
  212. Stream size                              : 30.3 MiB (0%)
  213. Language                                 : Czech
  214. Default                                  : No
  215. Forced                                   : No
  216. Text #12
  217. ID                                       : 15
  218. Format                                   : PGS
  219. Muxing mode                              : zlib
  220. Codec ID                                 : S_HDMV/PGS
  221. Codec ID/Info                            : Picture based subtitle format used on BDs/HD-DVDs
  222. Duration                                 : 3 h 55 min
  223. Bit rate                                 : 16.8 kb/s
  224. Count of elements                        : 2552
  225. Stream size                              : 28.3 MiB (0%)
  226. Language                                 : Danish
  227. Default                                  : No
  228. Forced                                   : No
  229. Text #13
  230. ID                                       : 16
  231. Format                                   : PGS
  232. Muxing mode                              : zlib
  233. Codec ID                                 : S_HDMV/PGS
  234. Codec ID/Info                            : Picture based subtitle format used on BDs/HD-DVDs
  235. Duration                                 : 3 h 55 min
  236. Bit rate                                 : 18.3 kb/s
  237. Count of elements                        : 3760
  238. Stream size                              : 30.8 MiB (0%)
  239. Language                                 : Finnish
  240. Default                                  : No
  241. Forced                                   : No
  242. Text #14
  243. ID                                       : 17
  244. Format                                   : PGS
  245. Muxing mode                              : zlib
  246. Codec ID                                 : S_HDMV/PGS
  247. Codec ID/Info                            : Picture based subtitle format used on BDs/HD-DVDs
  248. Duration                                 : 3 h 55 min
  249. Bit rate                                 : 18.1 kb/s
  250. Count of elements                        : 3044
  251. Stream size                              : 30.4 MiB (0%)
  252. Language                                 : Norwegian
  253. Default                                  : No
  254. Forced                                   : No
  255. Text #15
  256. ID                                       : 18
  257. Format                                   : PGS
  258. Muxing mode                              : zlib
  259. Codec ID                                 : S_HDMV/PGS
  260. Codec ID/Info                            : Picture based subtitle format used on BDs/HD-DVDs
  261. Duration                                 : 3 h 59 min
  262. Bit rate                                 : 18.8 kb/s
  263. Count of elements                        : 3744
  264. Stream size                              : 32.2 MiB (0%)
  265. Language                                 : Polish
  266. Default                                  : No
  267. Forced                                   : No
  268. Text #16
  269. ID                                       : 19
  270. Format                                   : PGS
  271. Muxing mode                              : zlib
  272. Codec ID                                 : S_HDMV/PGS
  273. Codec ID/Info                            : Picture based subtitle format used on BDs/HD-DVDs
  274. Duration                                 : 3 h 55 min
  275. Bit rate                                 : 16.5 kb/s
  276. Count of elements                        : 3622
  277. Stream size                              : 27.8 MiB (0%)
  278. Language                                 : Swedish
  279. Default                                  : No
  280. Forced                                   : No
  281. Text #17
  282. ID                                       : 20
  283. Format                                   : PGS
  284. Muxing mode                              : zlib
  285. Codec ID                                 : S_HDMV/PGS
  286. Codec ID/Info                            : Picture based subtitle format used on BDs/HD-DVDs
  287. Duration                                 : 3 h 47 min
  288. Bit rate                                 : 13.2 kb/s
  289. Count of elements                        : 3433
  290. Stream size                              : 21.4 MiB (0%)
  291. Language                                 : Japanese
  292. Default                                  : No
  293. Forced                                   : No
  294. Menu
  295. 00:00:00.000                             : Chapter 01
  296. 00:08:54.909                             : Chapter 02
  297. 00:19:56.737                             : Chapter 03
  298. 00:36:54.503                             : Chapter 04
  299. 00:41:32.031                             : Chapter 05
  300. 00:50:18.640                             : Chapter 06
  301. 00:58:42.435                             : Chapter 07
  302. 01:08:35.569                             : Chapter 08
  303. 01:20:27.823                             : Chapter 09
  304. 01:30:05.024                             : Chapter 10
  305. 01:40:28.313                             : Chapter 11
  306. 01:51:24.010                             : Chapter 12
  307. 01:59:06.931                             : Chapter 13
  308. 02:07:56.293                             : Chapter 14
  309. 02:21:58.528                             : Chapter 01
  310. 02:29:49.915                             : Chapter 02
  311. 02:37:27.289                             : Chapter 03
  312. 02:48:36.374                             : Chapter 04
  313. 02:53:19.532                             : Chapter 05
  314. 03:09:54.109                             : Chapter 06
  315. 03:21:28.844                             : Chapter 07
  316. 03:34:12.858                             : Chapter 08
  317. 03:40:10.048                             : Chapter 09
  318. 03:50:47.476                             : Chapter 10
复制代码




                                       
                                       

                                       
                                       
                                       




回复

使用道具 举报

懒得打字嘛,点击右侧快捷回复 【右侧内容,后台自定义】
您需要登录后才可以回帖 登录 | 立即加入

本版积分规则

Archiver|小黑屋| 蓝光电影网 |网站地图

Copyright © 2021 Comsenz Inc. Powered by 蓝光电影网

蓝光电影网

本站内容由用户自主分享和转载自互联网,转载目的在于传递更多信息,并不代表本网赞同其观点和对其真实性负责。

如有侵权、违反国家法律政策行为,请联系我们,我们会第一时间及时清除和处理!

举报反馈邮箱:[email protected]

快速回复 返回顶部 返回列表