找回密码

蓝光电影网

查看: 18|回复: 0

[科幻] 绝密档案/档案 Archive.2020.1080p.BluRay.x264.DTS-FGT 9.91GB

[复制链接]
蓝光币
426
发表于 2020-11-9 08:58:31 | 显示全部楼层 |阅读模式


◎译  名 绝密档案/档案
◎片  名 Archive
◎年  代 2020
◎产  地 英国,匈牙利,美国
◎类  别 科幻
◎语  言 英语
◎上映日期 2020-07-10(美国)
◎IMDb评分  6.3/10 from 7847 users
◎IMDb链接  https://www.imdb.com/title/tt6882604/
◎豆瓣评分 6.7/10 from 2215 users
◎豆瓣链接 https://movie.douban.com/subject/27043260/
◎片  长 109分钟
◎导  演 加文·罗瑟里 Gavin Rothery
◎编  剧 加文·罗瑟里 Gavin Rothery
◎主  演 西奥·詹姆斯 Theo James
       斯塔西·马汀 Stacy Martin
       罗娜·迈特拉 Rhona Mitra
       彼得·费迪南多 Peter Ferdinando
       莉娅·威廉姆斯 Lia Williams
       托比·琼斯 Toby Jones
       杰瑞米·惠勒 Jeremy Wheeler
       Hans Peterson
◎标  签 科幻 | 英国 | 2020 | 英国电影 | 史黛西·马汀 | 提奥·詹姆斯 | 欧洲 | watchlist
◎简  介


  提奥·詹姆斯加盟[绝密档案](Archive,暂译)。该片是[月球]的概念设想者加文·罗瑟里的导演童贞作。故事设备在近未来,提奥饰演的科学家,缔造出一款与人类非常接近的机械人,他的科研功效背后,却隐藏着不成告人的目标。[摩天大楼]摄影师劳里·罗斯将为本片掌镜。
  1. Video
  2. ID                                       : 1
  3. Format                                   : AVC
  4. Format/Info                              : Advanced Video Codec
  5. Format profile                           : [email protected]
  6. Format settings                          : CABAC / 4 Ref Frames
  7. Format settings, CABAC                   : Yes
  8. Format settings, Reference frames        : 4 frames
  9. Codec ID                                 : V_MPEG4/ISO/AVC
  10. Duration                                 : 1 h 49 min
  11. Bit rate                                 : 11.5 Mb/s
  12. Width                                    : 1 920 pixels
  13. Height                                   : 800 pixels
  14. Display aspect ratio                     : 2.40:1
  15. Frame rate mode                          : Constant
  16. Frame rate                               : 24.000 FPS
  17. Color space                              : YUV
  18. Chroma subsampling                       : 4:2:0
  19. Bit depth                                : 8 bits
  20. Scan type                                : Progressive
  21. Bits/(Pixel*Frame)                       : 0.312
  22. Stream size                              : 8.76 GiB (88%)
  23. Title                                    : Archive.2020.1080p.BluRay.x264.DTS-FGT
  24. Writing library                          : x264 core 148 r2795M aaa9aa8
  25. Encoding settings                        : cabac=1 / ref=4 / deblock=1:-2:-2 / analyse=0x3:0x113 / me=umh / subme=9 / psy=1 / psy_rd=1.00:0.15 / mixed_ref=1 / me_range=16 / chroma_me=1 / trellis=2 / 8x8dct=1 / cqm=0 / deadzone=21,11 / fast_pskip=1 / chroma_qp_offset=-3 / threads=24 / lookahead_threads=3 / sliced_threads=0 / nr=0 / decimate=1 / interlaced=0 / bluray_compat=0 / constrained_intra=0 / bframes=3 / b_pyramid=2 / b_adapt=1 / b_bias=0 / direct=3 / weightb=1 / open_gop=0 / weightp=2 / keyint=250 / keyint_min=25 / scenecut=40 / intra_refresh=0 / rc_lookahead=50 / rc=2pass / mbtree=1 / bitrate=11500 / ratetol=1.0 / qcomp=0.60 / qpmin=0 / qpmax=69 / qpstep=4 / cplxblur=20.0 / qblur=0.5 / vbv_maxrate=31250 / vbv_bufsize=31250 / nal_hrd=none / filler=0 / ip_ratio=1.40 / aq=1:1.00
  26. Language                                 : English
  27. Default                                  : Yes
  28. Forced                                   : No
  29. Audio
  30. ID                                       : 2
  31. ID in the original source medium         : 4353 (0x1101)
  32. Format                                   : DTS
  33. Format/Info                              : Digital Theater Systems
  34. Codec ID                                 : A_DTS
  35. Duration                                 : 1 h 49 min
  36. Bit rate mode                            : Constant
  37. Bit rate                                 : 1 509 kb/s
  38. Channel(s)                               : 6 channels
  39. Channel layout                           : C L R Ls Rs LFE
  40. Sampling rate                            : 48.0 kHz
  41. Frame rate                               : 93.750 FPS (512 SPF)
  42. Bit depth                                : 24 bits
  43. Compression mode                         : Lossy
  44. Stream size                              : 1.15 GiB (12%)
  45. Title                                    : Archive.2020.1080p.BluRay.x264.DTS-FGT
  46. Language                                 : English
  47. Default                                  : No
  48. Forced                                   : No
  49. Original source medium                   : Blu-ray
  50. Text
  51. ID                                       : 3
  52. Format                                   : UTF-8
  53. Codec ID                                 : S_TEXT/UTF8
  54. Codec ID/Info                            : UTF-8 Plain Text
  55. Duration                                 : 1 h 41 min
  56. Bit rate                                 : 42 b/s
  57. Count of elements                        : 1068
  58. Stream size                              : 31.4 KiB (0%)
  59. Title                                    : English-SRT
  60. Language                                 : English
  61. Default                                  : Yes
  62. Forced                                   : No
  63. Menu
  64. 00:00:00.000                             : en:Chapter 01
  65. 00:03:24.958                             : en:Chapter 02
  66. 00:12:26.083                             : en:Chapter 03
  67. 00:19:48.291                             : en:Chapter 04
  68. 00:29:07.833                             : en:Chapter 05
  69. 00:35:15.208                             : en:Chapter 06
  70. 00:41:08.625                             : en:Chapter 07
  71. 00:50:10.291                             : en:Chapter 08
  72. 00:58:53.416                             : en:Chapter 09
  73. 01:08:06.000                             : en:Chapter 10
  74. 01:14:51.833                             : en:Chapter 11
  75. 01:19:28.916                             : en:Chapter 12
  76. 01:25:47.375                             : en:Chapter 13
  77. 01:34:37.291                             : en:Chapter 14
  78. 01:39:38.625                             : en:Chapter 15
  79. 01:43:30.541                             : en:Chapter 16
复制代码





                                       
                                       

                                       
                                       
                                       




回复

使用道具 举报

懒得打字嘛,点击右侧快捷回复 【右侧内容,后台自定义】
您需要登录后才可以回帖 登录 | 立即加入

本版积分规则

Archiver|小黑屋| 蓝光电影网 |网站地图

Copyright © 2021 Comsenz Inc. Powered by 蓝光电影网

蓝光电影网

本站内容由用户自主分享和转载自互联网,转载目的在于传递更多信息,并不代表本网赞同其观点和对其真实性负责。

如有侵权、违反国家法律政策行为,请联系我们,我们会第一时间及时清除和处理!

举报反馈邮箱:[email protected]

快速回复 返回顶部 返回列表